  0
SECTION
  2
HEADER
  9
$ACADVER
  1
AC1018
  9
$ACADMAINTVER
 70
     0
  9
$DWGCODEPAGE
  3
ANSI_1252
  9
$INSBASE
 10
0.0
 20
0.0
 30
0.0
  9
$EXTMIN
 10
-98.09999976516013
 20
332.8517110923839
 30
0.0
  9
$EXTMAX
 10
198.9000002348379
 20
542.851711092384
 30
0.0
  9
$LIMMIN
 10
0.0
 20
0.0
  9
$LIMMAX
 10
12.0
 20
9.0
  9
$ORTHOMODE
 70
     0
  9
$REGENMODE
 70
     1
  9
$FILLMODE
 70
     1
  9
$QTEXTMODE
 70
     0
  9
$MIRRTEXT
 70
     1
  9
$LTSCALE
 40
1.0
  9
$ATTMODE
 70
     1
  9
$TEXTSIZE
 40
0.2
  9
$TRACEWID
 40
0.05
  9
$TEXTSTYLE
  7
Standard
  9
$CLAYER
  8
0
  9
$CELTYPE
  6
ByLayer
  9
$CECOLOR
 62
   256
  9
$CELTSCALE
 40
1.0
  9
$DISPSILH
 70
     0
  9
$DIMSCALE
 40
1.0
  9
$DIMASZ
 40
0.18
  9
$DIMEXO
 40
0.0625
  9
$DIMDLI
 40
0.38
  9
$DIMRND
 40
0.0
  9
$DIMDLE
 40
0.0
  9
$DIMEXE
 40
0.18
  9
$DIMTP
 40
0.0
  9
$DIMTM
 40
0.0
  9
$DIMTXT
 40
0.18
  9
$DIMCEN
 40
0.09
  9
$DIMTSZ
 40
0.0
  9
$DIMTOL
 70
     0
  9
$DIMLIM
 70
     0
  9
$DIMTIH
 70
     1
  9
$DIMTOH
 70
     1
  9
$DIMSE1
 70
     0
  9
$DIMSE2
 70
     0
  9
$DIMTAD
 70
     0
  9
$DIMZIN
 70
     0
  9
$DIMBLK
  1

  9
$DIMASO
 70
     1
  9
$DIMSHO
 70
     1
  9
$DIMPOST
  1

  9
$DIMAPOST
  1

  9
$DIMALT
 70
     0
  9
$DIMALTD
 70
     2
  9
$DIMALTF
 40
25.4
  9
$DIMLFAC
 40
1.0
  9
$DIMTOFL
 70
     0
  9
$DIMTVP
 40
0.0
  9
$DIMTIX
 70
     0
  9
$DIMSOXD
 70
     0
  9
$DIMSAH
 70
     0
  9
$DIMBLK1
  1

  9
$DIMBLK2
  1

  9
$DIMSTYLE
  2
Standard
  9
$DIMCLRD
 70
     0
  9
$DIMCLRE
 70
     0
  9
$DIMCLRT
 70
     0
  9
$DIMTFAC
 40
1.0
  9
$DIMGAP
 40
0.09
  9
$DIMJUST
 70
     0
  9
$DIMSD1
 70
     0
  9
$DIMSD2
 70
     0
  9
$DIMTOLJ
 70
     1
  9
$DIMTZIN
 70
     0
  9
$DIMALTZ
 70
     0
  9
$DIMALTTZ
 70
     0
  9
$DIMUPT
 70
     0
  9
$DIMDEC
 70
     4
  9
$DIMTDEC
 70
     4
  9
$DIMALTU
 70
     2
  9
$DIMALTTD
 70
     2
  9
$DIMTXSTY
  7
Standard
  9
$DIMAUNIT
 70
     0
  9
$DIMADEC
 70
     0
  9
$DIMALTRND
 40
0.0
  9
$DIMAZIN
 70
     0
  9
$DIMDSEP
 70
    46
  9
$DIMATFIT
 70
     3
  9
$DIMFRAC
 70
     0
  9
$DIMLDRBLK
  1

  9
$DIMLUNIT
 70
     2
  9
$DIMLWD
 70
    -2
  9
$DIMLWE
 70
    -2
  9
$DIMTMOVE
 70
     0
  9
$LUNITS
 70
     2
  9
$LUPREC
 70
     4
  9
$SKETCHINC
 40
0.1
  9
$FILLETRAD
 40
0.5
  9
$AUNITS
 70
     0
  9
$AUPREC
 70
     0
  9
$MENU
  1
.
  9
$ELEVATION
 40
0.0
  9
$PELEVATION
 40
0.0
  9
$THICKNESS
 40
0.0
  9
$LIMCHECK
 70
     0
  9
$CHAMFERA
 40
0.5
  9
$CHAMFERB
 40
0.5
  9
$CHAMFERC
 40
1.0
  9
$CHAMFERD
 40
0.0
  9
$SKPOLY
 70
     0
  9
$TDCREATE
 40
2458157.826025949
  9
$TDUCREATE
 40
2458157.784359282
  9
$TDUPDATE
 40
2458157.826026482
  9
$TDUUPDATE
 40
2458157.784359815
  9
$TDINDWG
 40
0.0000000116
  9
$TDUSRTIMER
 40
0.0000000116
  9
$USRTIMER
 70
     1
  9
$ANGBASE
 50
0.0
  9
$ANGDIR
 70
     0
  9
$PDMODE
 70
     0
  9
$PDSIZE
 40
0.0
  9
$PLINEWID
 40
0.0
  9
$SPLFRAME
 70
     0
  9
$SPLINETYPE
 70
     6
  9
$SPLINESEGS
 70
     8
  9
$HANDSEED
  5
351
  9
$SURFTAB1
 70
     6
  9
$SURFTAB2
 70
     6
  9
$SURFTYPE
 70
     6
  9
$SURFU
 70
     6
  9
$SURFV
 70
     6
  9
$UCSBASE
  2

  9
$UCSNAME
  2

  9
$UCSORG
 10
0.0
 20
0.0
 30
0.0
  9
$UCSXDIR
 10
1.0
 20
0.0
 30
0.0
  9
$UCSYDIR
 10
0.0
 20
1.0
 30
0.0
  9
$UCSORTHOREF
  2

  9
$UCSORTHOVIEW
 70
     0
  9
$UCSORGTOP
 10
0.0
 20
0.0
 30
0.0
  9
$UCSORGBOTTOM
 10
0.0
 20
0.0
 30
0.0
  9
$UCSORGLEFT
 10
0.0
 20
0.0
 30
0.0
  9
$UCSORGRIGHT
 10
0.0
 20
0.0
 30
0.0
  9
$UCSORGFRONT
 10
0.0
 20
0.0
 30
0.0
  9
$UCSORGBACK
 10
0.0
 20
0.0
 30
0.0
  9
$PUCSBASE
  2

  9
$PUCSNAME
  2

  9
$PUCSORG
 10
0.0
 20
0.0
 30
0.0
  9
$PUCSXDIR
 10
1.0
 20
0.0
 30
0.0
  9
$PUCSYDIR
 10
0.0
 20
1.0
 30
0.0
  9
$PUCSORTHOREF
  2

  9
$PUCSORTHOVIEW
 70
     0
  9
$PUCSORGTOP
 10
0.0
 20
0.0
 30
0.0
  9
$PUCSORGBOTTOM
 10
0.0
 20
0.0
 30
0.0
  9
$PUCSORGLEFT
 10
0.0
 20
0.0
 30
0.0
  9
$PUCSORGRIGHT
 10
0.0
 20
0.0
 30
0.0
  9
$PUCSORGFRONT
 10
0.0
 20
0.0
 30
0.0
  9
$PUCSORGBACK
 10
0.0
 20
0.0
 30
0.0
  9
$USERI1
 70
     0
  9
$USERI2
 70
     0
  9
$USERI3
 70
     0
  9
$USERI4
 70
     0
  9
$USERI5
 70
     0
  9
$USERR1
 40
18.1
  9
$USERR2
 40
0.0
  9
$USERR3
 40
0.0
  9
$USERR4
 40
0.0
  9
$USERR5
 40
0.0
  9
$WORLDVIEW
 70
     1
  9
$SHADEDGE
 70
     3
  9
$SHADEDIF
 70
    70
  9
$TILEMODE
 70
     1
  9
$MAXACTVP
 70
    64
  9
$PINSBASE
 10
0.0
 20
0.0
 30
0.0
  9
$PLIMCHECK
 70
     0
  9
$PEXTMIN
 10
1.00000000000000E+20
 20
1.00000000000000E+20
 30
1.00000000000000E+20
  9
$PEXTMAX
 10
-1.00000000000000E+20
 20
-1.00000000000000E+20
 30
-1.00000000000000E+20
  9
$PLIMMIN
 10
0.0
 20
0.0
  9
$PLIMMAX
 10
12.0
 20
9.0
  9
$UNITMODE
 70
     0
  9
$VISRETAIN
 70
     1
  9
$PLINEGEN
 70
     0
  9
$PSLTSCALE
 70
     1
  9
$TREEDEPTH
 70
  3020
  9
$CMLSTYLE
  2
Standard
  9
$CMLJUST
 70
     0
  9
$CMLSCALE
 40
1.0
  9
$PROXYGRAPHICS
 70
     1
  9
$MEASUREMENT
 70
     1
  9
$CELWEIGHT
370
    -1
  9
$ENDCAPS
280
     0
  9
$JOINSTYLE
280
     0
  9
$LWDISPLAY
290
     0
  9
$INSUNITS
 70
     4
  9
$HYPERLINKBASE
  1

  9
$STYLESHEET
  1

  9
$XEDIT
290
     1
  9
$CEPSNTYPE
380
     0
  9
$PSTYLEMODE
290
     1
  9
$FINGERPRINTGUID
  2
{0FA585B3-9702-470C-81BB-EA2072E43A8B}
  9
$VERSIONGUID
  2
{FAEB1C32-E019-11D5-929B-00C0DF256EC4}
  9
$EXTNAMES
290
     1
  9
$PSVPSCALE
 40
0.0
  9
$OLESTARTUP
290
     0
  9
$SORTENTS
280
   127
  9
$INDEXCTL
280
     0
  9
$HIDETEXT
280
     1
  9
$XCLIPFRAME
290
     0
  9
$HALOGAP
280
     0
  9
$OBSCOLOR
 70
   257
  9
$OBSLTYPE
280
     0
  9
$INTERSECTIONDISPLAY
280
     0
  9
$INTERSECTIONCOLOR
 70
   257
  9
$DIMASSOC
280
     2
  9
$PROJECTNAME
  1

  0
ENDSEC
  0
SECTION
  2
CLASSES
  0
CLASS
  1
ACDBDICTIONARYWDFLT
  2
AcDbDictionaryWithDefault
  3
ObjectDBX Classes
 90
        0
 91
        4
280
     0
281
     0
  0
CLASS
  1
VISUALSTYLE
  2
AcDbVisualStyle
  3
ObjectDBX Classes
 90
     4095
 91
        4
280
     0
281
     0
  0
CLASS
  1
MATERIAL
  2
AcDbMaterial
  3
ObjectDBX Classes
 90
     1153
 91
        4
280
     0
281
     0
  0
ENDSEC
  0
SECTION
  2
TABLES
  0
TABLE
  2
VPORT
  5
8
330
0
100
AcDbSymbolTable
 70
     1
  0
VPORT
  5
29
330
8
100
AcDbSymbolTableRecord
100
AcDbViewportTableRecord
  2
*Active
 70
     0
 10
0.0
 20
0.0
 11
1.0
 21
1.0
 12
50.40000023483888
 22
437.8517110923839
 13
0.0
 23
0.0
 14
0.5
 24
0.5
 15
0.5
 25
0.5
 16
0.0
 26
0.0
 36
1.0
 17
0.0
 27
0.0
 37
0.0
 40
231.0000000000001
 41
1.60267857142857
 42
50.0
 43
0.0
 44
0.0
 50
0.0
 51
0.0
 71
     0
 72
   100
 73
     1
 74
     3
 75
     0
 76
     0
 77
     0
 78
     0
281
     0
 65
     1
110
0.0
120
0.0
130
0.0
111
1.0
121
0.0
131
0.0
112
0.0
122
1.0
132
0.0
 79
     0
146
0.0
  0
ENDTAB
  0
TABLE
  2
LTYPE
  5
5
330
0
100
AcDbSymbolTable
 70
     8
  0
LTYPE
  5
14
330
5
100
AcDbSymbolTableRecord
100
AcDbLinetypeTableRecord
  2
ByBlock
 70
     0
  3

 72
    65
 73
     0
 40
0.0
  0
LTYPE
  5
15
330
5
100
AcDbSymbolTableRecord
100
AcDbLinetypeTableRecord
  2
ByLayer
 70
     0
  3

 72
    65
 73
     0
 40
0.0
  0
LTYPE
  5
16
330
5
100
AcDbSymbolTableRecord
100
AcDbLinetypeTableRecord
  2
Continuous
 70
     0
  3
Solid line
 72
    65
 73
     0
 40
0.0
  0
LTYPE
  5
3F
330
5
100
AcDbSymbolTableRecord
100
AcDbLinetypeTableRecord
  2
DASHED
 70
     0
  3
Dashed
 72
    65
 73
     2
 40
15.0
 49
7.0
 74
     0
 49
-8.0
 74
     0
  0
LTYPE
  5
40
330
5
100
AcDbSymbolTableRecord
100
AcDbLinetypeTableRecord
  2
DOTTED
 70
     0
  3
Dotted
 72
    65
 73
     2
 40
1.0
 49
0.0
 74
     0
 49
-1.0
 74
     0
  0
LTYPE
  5
41
330
5
100
AcDbSymbolTableRecord
100
AcDbLinetypeTableRecord
  2
DOT_CENTER
 70
     0
  3
Dot_Center
 72
    65
 73
     4
 40
14.0
 49
12.0
 74
     0
 49
-1.0
 74
     0
 49
0.0
 74
     0
 49
-1.0
 74
     0
  0
LTYPE
  5
42
330
5
100
AcDbSymbolTableRecord
100
AcDbLinetypeTableRecord
  2
LONG_DASHED
 70
     0
  3
Long_Dashed
 72
    65
 73
     2
 40
15.0
 49
10.0
 74
     0
 49
-5.0
 74
     0
  0
LTYPE
  5
43
330
5
100
AcDbSymbolTableRecord
100
AcDbLinetypeTableRecord
  2
DASH_CENTER
 70
     0
  3
Dash_Center
 72
    65
 73
     4
 40
14.0
 49
11.0
 74
     0
 49
-1.0
 74
     0
 49
1.0
 74
     0
 49
-1.0
 74
     0
  0
LTYPE
  5
44
330
5
100
AcDbSymbolTableRecord
100
AcDbLinetypeTableRecord
  2
PHANTOM
 70
     0
  3
Phantom
 72
    65
 73
     6
 40
13.0
 49
10.0
 74
     0
 49
-1.0
 74
     0
 49
0.0
 74
     0
 49
-1.0
 74
     0
 49
0.0
 74
     0
 49
-1.0
 74
     0
  0
LTYPE
  5
45
330
5
100
AcDbSymbolTableRecord
100
AcDbLinetypeTableRecord
  2
CENTER_DASH_DASH
 70
     0
  3
Center_Dash_Dash
 72
    65
 73
     6
 40
14.0
 49
9.0
 74
     0
 49
-1.0
 74
     0
 49
1.0
 74
     0
 49
-1.0
 74
     0
 49
1.0
 74
     0
 49
-1.0
 74
     0
  0
ENDTAB
  0
TABLE
  2
LAYER
  5
2
330
0
100
AcDbSymbolTable
 70
     2
  0
LAYER
  5
10
330
2
100
AcDbSymbolTableRecord
100
AcDbLayerTableRecord
  2
0
 70
     0
 62
     7
  6
Continuous
370
    -3
390
F
  0
LAYER
  5
46
330
2
100
AcDbSymbolTableRecord
100
AcDbLayerTableRecord
  2
1
 70
     0
 62
     7
  6
Continuous
370
    -3
390
F
  0
ENDTAB
  0
TABLE
  2
STYLE
  5
3
330
0
100
AcDbSymbolTable
 70
     5
  0
STYLE
  5
11
330
3
100
AcDbSymbolTableRecord
100
AcDbTextStyleTableRecord
  2
Standard
 70
     0
 40
0.0
 41
1.0
 50
0.0
 71
     0
 42
0.2
  3
txt
  4

  0
STYLE
  5
DE
330
3
100
AcDbSymbolTableRecord
100
AcDbTextStyleTableRecord
  2
CONVERTER_11
 70
     0
 40
0.0
 41
0.9
 50
0.0
 71
     0
 42
0.2
  3
txt.shx
  4

  0
STYLE
  5
1DC
330
3
100
AcDbSymbolTableRecord
100
AcDbTextStyleTableRecord
  2
CONVERTER_12
 70
     0
 40
0.0
 41
0.81
 50
0.0
 71
     0
 42
0.2
  3
txt.shx
  4

  0
STYLE
  5
1F2
330
3
100
AcDbSymbolTableRecord
100
AcDbTextStyleTableRecord
  2
CONVERTER_13
 70
     0
 40
0.0
 41
0.72
 50
0.0
 71
     0
 42
0.2
  3
txt.shx
  4

  0
STYLE
  5
1F5
330
3
100
AcDbSymbolTableRecord
100
AcDbTextStyleTableRecord
  2
CONVERTER_14
 70
     0
 40
0.0
 41
0.855
 50
0.0
 71
     0
 42
0.2
  3
txt.shx
  4

  0
ENDTAB
  0
TABLE
  2
VIEW
  5
6
330
0
100
AcDbSymbolTable
 70
     0
  0
ENDTAB
  0
TABLE
  2
UCS
  5
7
330
0
100
AcDbSymbolTable
 70
     0
  0
ENDTAB
  0
TABLE
  2
APPID
  5
9
330
0
100
AcDbSymbolTable
 70
     1
  0
APPID
  5
12
330
9
100
AcDbSymbolTableRecord
100
AcDbRegAppTableRecord
  2
ACAD
 70
     0
  0
ENDTAB
  0
TABLE
  2
DIMSTYLE
  5
A
330
0
100
AcDbSymbolTable
 70
     5
100
AcDbDimStyleTable
  0
DIMSTYLE
105
27
330
A
100
AcDbSymbolTableRecord
100
AcDbDimStyleTableRecord
  2
Standard
 70
     0
178
     0
340
11
  0
DIMSTYLE
105
23F
102
{ACAD_REACTORS
330
240
102
}
330
A
100
AcDbSymbolTableRecord
100
AcDbDimStyleTableRecord
  2
ME10_DIM_10
 70
     0
 41
3.5
 42
0.0
 44
1.5
 73
     0
 74
     0
 77
     1
 78
     8
140
3.5
147
1.5
172
     1
173
     1
174
     1
175
     1
176
     2
177
     2
271
     1
178
     3
271
     1
340
DE
  0
DIMSTYLE
105
2A5
102
{ACAD_REACTORS
330
2A6
102
}
330
A
100
AcDbSymbolTableRecord
100
AcDbDimStyleTableRecord
  2
ME10_DIM_11
 70
     0
 41
3.5
 42
0.0
 44
1.5
 73
     0
 74
     0
 77
     1
 78
     8
140
3.5
147
1.5
172
     1
173
     1
174
     1
175
     1
176
     2
177
     2
178
     3
340
DE
  0
DIMSTYLE
105
2B0
102
{ACAD_REACTORS
330
2B1
102
}
330
A
100
AcDbSymbolTableRecord
100
AcDbDimStyleTableRecord
  2
ME10_DIM_12
 70
     0
 41
3.5
 42
0.0
 44
1.5
 73
     0
 74
     0
 77
     1
 78
     8
140
3.5
147
1.5
172
     1
173
     1
174
     1
175
     1
176
     2
177
     2
271
     1
178
     3
271
     1
340
DE
  0
DIMSTYLE
105
2BB
102
{ACAD_REACTORS
330
2BC
102
}
330
A
100
AcDbSymbolTableRecord
100
AcDbDimStyleTableRecord
  2
ME10_DIM_13
 70
     0
 41
3.5
 42
0.0
 44
1.5
 73
     0
 74
     0
 77
     1
 78
     8
140
3.5
147
1.5
172
     1
173
     1
174
     1
175
     1
176
     2
177
     2
271
     1
178
     3
271
     1
340
DE
  0
ENDTAB
  0
TABLE
  2
BLOCK_RECORD
  5
1
330
0
100
AcDbSymbolTable
 70
    21
  0
BLOCK_RECORD
  5
1F
330
1
100
AcDbSymbolTableRecord
100
AcDbBlockTableRecord
  2
*Model_Space
340
22
  0
BLOCK_RECORD
  5
1B
330
1
100
AcDbSymbolTableRecord
100
AcDbBlockTableRecord
  2
*Paper_Space
340
1E
  0
BLOCK_RECORD
  5
23
330
1
100
AcDbSymbolTableRecord
100
AcDbBlockTableRecord
  2
*Paper_Space0
340
26
  0
BLOCK_RECORD
  5
47
330
1
100
AcDbSymbolTableRecord
100
AcDbBlockTableRecord
  2
PT_5___ST-select__1
340
0
102
{BLKREFS
331
4B
102
}
  0
BLOCK_RECORD
  5
4A
330
1
100
AcDbSymbolTableRecord
100
AcDbBlockTableRecord
  2
Allg1
340
0
102
{BLKREFS
331
7D
102
}
  0
BLOCK_RECORD
  5
4E
330
1
100
AcDbSymbolTableRecord
100
AcDbBlockTableRecord
  2
_rahmen
340
0
102
{BLKREFS
331
55
102
}
  0
BLOCK_RECORD
  5
51
330
1
100
AcDbSymbolTableRecord
100
AcDbBlockTableRecord
  2
_punkt
340
0
102
{BLKREFS
331
56
102
}
  0
BLOCK_RECORD
  5
54
330
1
100
AcDbSymbolTableRecord
100
AcDbBlockTableRecord
  2
A4I_CS
340
0
102
{BLKREFS
331
7E
102
}
  0
BLOCK_RECORD
  5
59
330
1
100
AcDbSymbolTableRecord
100
AcDbBlockTableRecord
  2
PT_5___ST-select__2
340
0
102
{BLKREFS
331
5D
102
}
  0
BLOCK_RECORD
  5
5C
330
1
100
AcDbSymbolTableRecord
100
AcDbBlockTableRecord
  2
Drfsicht2
340
0
102
{BLKREFS
331
7F
102
}
  0
BLOCK_RECORD
  5
60
330
1
100
AcDbSymbolTableRecord
100
AcDbBlockTableRecord
  2
PT_5___ST-select__3
340
0
102
{BLKREFS
331
64
102
}
  0
BLOCK_RECORD
  5
63
330
1
100
AcDbSymbolTableRecord
100
AcDbBlockTableRecord
  2
Rckans1
340
0
102
{BLKREFS
331
80
102
}
  0
BLOCK_RECORD
  5
67
330
1
100
AcDbSymbolTableRecord
100
AcDbBlockTableRecord
  2
PT_5___ST-select__4
340
0
102
{BLKREFS
331
6B
102
}
  0
BLOCK_RECORD
  5
6A
330
1
100
AcDbSymbolTableRecord
100
AcDbBlockTableRecord
  2
Vordans2
340
0
102
{BLKREFS
331
81
102
}
  0
BLOCK_RECORD
  5
6E
330
1
100
AcDbSymbolTableRecord
100
AcDbBlockTableRecord
  2
PT_5___ST-select__5
340
0
102
{BLKREFS
331
72
102
}
  0
BLOCK_RECORD
  5
71
330
1
100
AcDbSymbolTableRecord
100
AcDbBlockTableRecord
  2
SA_Rechts1
340
0
102
{BLKREFS
331
82
102
}
  0
BLOCK_RECORD
  5
75
330
1
100
AcDbSymbolTableRecord
100
AcDbBlockTableRecord
  2
PT_5___ST-select__6
340
0
102
{BLKREFS
331
79
102
}
  0
BLOCK_RECORD
  5
78
330
1
100
AcDbSymbolTableRecord
100
AcDbBlockTableRecord
  2
SA_Links1
340
0
102
{BLKREFS
331
83
102
}
  0
BLOCK_RECORD
  5
7C
330
1
100
AcDbSymbolTableRecord
100
AcDbBlockTableRecord
  2
1
340
0
102
{BLKREFS
331
86
102
}
  0
BLOCK_RECORD
  5
236
330
1
100
AcDbSymbolTableRecord
100
AcDbBlockTableRecord
  2
*D17
340
0
  0
BLOCK_RECORD
  5
29C
330
1
100
AcDbSymbolTableRecord
100
AcDbBlockTableRecord
  2
*D18
340
0
  0
BLOCK_RECORD
  5
2A7
330
1
100
AcDbSymbolTableRecord
100
AcDbBlockTableRecord
  2
*D19
340
0
  0
BLOCK_RECORD
  5
2B2
330
1
100
AcDbSymbolTableRecord
100
AcDbBlockTableRecord
  2
*D20
340
0
  0
ENDTAB
  0
ENDSEC
  0
SECTION
  2
BLOCKS
  0
BLOCK
  5
20
330
1F
100
AcDbEntity
  8
0
100
AcDbBlockBegin
  2
*Model_Space
 70
     0
 10
0.0
 20
0.0
 30
0.0
  3
*Model_Space
  1

  0
ENDBLK
  5
21
330
1F
100
AcDbEntity
  8
0
100
AcDbBlockEnd
  0
BLOCK
  5
1C
330
1B
100
AcDbEntity
 67
     1
  8
0
100
AcDbBlockBegin
  2
*Paper_Space
 70
     0
 10
0.0
 20
0.0
 30
0.0
  3
*Paper_Space
  1

  0
ENDBLK
  5
1D
330
1B
100
AcDbEntity
 67
     1
  8
0
100
AcDbBlockEnd
  0
BLOCK
  5
24
330
23
100
AcDbEntity
  8
0
100
AcDbBlockBegin
  2
*Paper_Space0
 70
     0
 10
0.0
 20
0.0
 30
0.0
  3
*Paper_Space0
  1

  0
ENDBLK
  5
25
330
23
100
AcDbEntity
  8
0
100
AcDbBlockEnd
  0
BLOCK
  5
48
330
47
100
AcDbEntity
  8
0
100
AcDbBlockBegin
  2
PT_5___ST-select__1
 70
     0
 10
118.2260306075934
 20
377.4709576362891
 30
0.0
  3
PT_5___ST-select__1
  1

  0
LINE
  5
87
330
47
100
AcDbEntity
  8
0
  6
Continuous
 62
     7
100
AcDbLine
 10
118.2260306075942
 20
428.41483953001
 30
0.0
 11
118.2260306075942
 21
430.1579688870417
 31
0.0
  0
LINE
  5
88
330
47
100
AcDbEntity
  8
0
  6
Continuous
 62
     7
100
AcDbLine
 10
121.983775217716
 20
428.043752859599
 30
0.0
 11
121.9863759590824
 21
428.6949970133109
 31
0.0
  0
LINE
  5
89
330
47
100
AcDbEntity
  8
0
  6
Continuous
 62
     7
100
AcDbLine
 10
125.9871740614714
 20
428.1521071199834
 30
0.0
 11
125.7521660141488
 21
428.2003318286227
 31
0.0
  0
LINE
  5
8A
330
47
100
AcDbEntity
  8
0
  6
Continuous
 62
     7
100
AcDbLine
 10
120.6056262253179
 20
428.326555233296
 30
0.0
 11
121.983775217716
 21
428.043752859599
 31
0.0
  0
LINE
  5
8B
330
47
100
AcDbEntity
  8
0
  6
Continuous
 62
     7
100
AcDbLine
 10
125.7521660141488
 20
428.2003318286227
 30
0.0
 11
125.9796831417197
 21
428.6175271936701
 31
0.0
  0
LINE
  5
8C
330
47
100
AcDbEntity
  8
0
  6
Continuous
 62
     7
100
AcDbLine
 10
121.9863759590824
 20
428.6949970133109
 30
0.0
 11
124.5754483435712
 21
428.1637077114679
 31
0.0
  0
LINE
  5
8D
330
47
100
AcDbEntity
  8
0
  6
Continuous
 62
     7
100
AcDbLine
 10
120.5285464508409
 20
429.2722420647026
 30
0.0
 11
120.7635544981622
 21
429.2240173560641
 31
0.0
  0
LINE
  5
8E
330
47
100
AcDbEntity
  8
0
  6
Continuous
 62
     7
100
AcDbLine
 10
120.6056262253179
 20
428.326555233296
 30
0.0
 11
129.3556262253179
 21
435.9042775164098
 31
0.0
  0
LINE
  5
8F
330
47
100
AcDbEntity
  8
0
  6
Continuous
 62
     7
100
AcDbLine
 10
129.3556262253179
 20
435.9042775164098
 30
0.0
 11
130.1279371582474
 21
435.7457958382536
 31
0.0
  0
LINE
  5
90
330
47
100
AcDbEntity
  8
0
  6
Continuous
 62
     7
100
AcDbLine
 10
129.2977126773051
 20
436.6148151391166
 30
0.0
 11
129.3556262253179
 21
435.9042775164098
 31
0.0
  0
LINE
  5
91
330
47
100
AcDbEntity
  8
0
  6
Continuous
 62
     7
100
AcDbLine
 10
129.5135544981622
 20
436.8017396391779
 30
0.0
 11
120.7635544981622
 21
429.2240173560641
 31
0.0
  0
LINE
  5
92
330
47
100
AcDbEntity
  8
0
  6
Continuous
 62
     7
100
AcDbLine
 10
129.2091319955843
 20
437.3280914095897
 30
0.0
 11
129.5135544981622
 21
436.8017396391779
 31
0.0
  0
LINE
  5
93
330
47
100
AcDbEntity
  8
0
  6
Continuous
 62
     7
100
AcDbLine
 10
120.4591319955843
 20
429.7503691264759
 30
0.0
 11
120.7635544981622
 21
429.2240173560641
 31
0.0
  0
LINE
  5
94
330
47
100
AcDbEntity
  8
0
  6
Continuous
 62
     7
100
AcDbLine
 10
129.2091319955843
 20
437.3280914095897
 30
0.0
 11
120.4591319955843
 21
429.7503691264759
 31
0.0
  0
LINE
  5
95
330
47
100
AcDbEntity
  8
0
  6
Continuous
 62
     7
100
AcDbLine
 10
120.5285464508409
 20
429.2722420647026
 30
0.0
 11
120.6056262253179
 21
428.326555233296
 31
0.0
  0
LINE
  5
96
330
47
100
AcDbEntity
  8
0
  6
Continuous
 62
     7
100
AcDbLine
 10
130.7363759590824
 20
436.2727192964248
 30
0.0
 11
121.9863759590824
 21
428.6949970133109
 31
0.0
  0
LINE
  5
97
330
47
100
AcDbEntity
  8
0
  6
Continuous
 62
     7
100
AcDbLine
 10
130.7363759590824
 20
436.2727192964248
 30
0.0
 11
133.3254483435712
 21
435.7414299945817
 31
0.0
  0
LINE
  5
98
330
47
100
AcDbEntity
  8
0
  6
Continuous
 62
     7
100
AcDbLine
 10
133.3254483435712
 20
435.7414299945817
 30
0.0
 11
124.5754483435712
 21
428.1637077114679
 31
0.0
  0
LINE
  5
99
330
47
100
AcDbEntity
  8
0
  6
Continuous
 62
     7
100
AcDbLine
 10
133.3254483435712
 20
435.7414299945817
 30
0.0
 11
133.4349509169809
 21
435.0739784790619
 31
0.0
  0
LINE
  5
9A
330
47
100
AcDbEntity
  8
0
  6
Continuous
 62
     7
100
AcDbLine
 10
124.6861048435502
 20
427.4892226622743
 30
0.0
 11
125.9713818333145
 21
428.6023051863098
 31
0.0
  0
LINE
  5
9B
330
47
100
AcDbEntity
  8
0
  6
Continuous
 62
     7
100
AcDbLine
 10
125.9796831417197
 20
428.6175271936701
 30
0.0
 11
134.7296831417197
 21
436.1952494767839
 31
0.0
  0
LINE
  5
9C
330
47
100
AcDbEntity
  8
0
  6
Continuous
 62
     7
100
AcDbLine
 10
118.2260306075942
 20
430.1579688870417
 30
0.0
 11
126.9760306075943
 21
437.7356911701556
 31
0.0
  0
LINE
  5
9D
330
47
100
AcDbEntity
  8
0
  6
Continuous
 62
     7
100
AcDbLine
 10
163.3739686971374
 20
389.0007287334868
 30
0.0
 11
163.3739686971374
 21
393.2009519415722
 31
0.0
  0
LINE
  5
9E
330
47
100
AcDbEntity
  8
0
  6
Continuous
 62
     7
100
AcDbLine
 10
163.3739686971374
 20
393.2009519415722
 30
0.0
 11
162.6739686971374
 21
392.6158973003285
 31
0.0
  0
LINE
  5
9F
330
47
100
AcDbEntity
  8
0
  6
Continuous
 62
     7
100
AcDbLine
 10
162.0239686971374
 20
392.052980788354
 30
0.0
 11
161.3239686971374
 21
391.4255998640832
 31
0.0
  0
LINE
  5
A0
330
47
100
AcDbEntity
  8
0
  6
Continuous
 62
     7
100
AcDbLine
 10
161.3239686971374
 20
391.4255998640832
 30
0.0
 11
161.3239686971374
 21
387.2253766557286
 31
0.0
  0
LINE
  5
A1
330
47
100
AcDbEntity
  8
0
  6
Continuous
 62
     7
100
AcDbLine
 10
157.0239686971374
 20
409.1913329986069
 30
0.0
 11
157.0239686971374
 21
383.5014674194555
 31
0.0
  0
LINE
  5
A2
330
47
100
AcDbEntity
  8
0
  6
Continuous
 62
     7
100
AcDbLine
 10
163.3739686971374
 20
389.0007287334868
 30
0.0
 11
165.7739686971374
 21
391.0791897025694
 31
0.0
  0
LINE
  5
A3
330
47
100
AcDbEntity
  8
0
  6
Continuous
 62
     7
100
AcDbLine
 10
157.0239686971374
 20
383.5014674194555
 30
0.0
 11
161.3239686971374
 21
387.2253766557286
 31
0.0
  0
LINE
  5
A4
330
47
100
AcDbEntity
  8
0
  6
Continuous
 62
     7
100
AcDbLine
 10
153.3863099234841
 20
384.5515690555499
 30
0.0
 11
153.3863099234841
 21
378.3709576362892
 31
0.0
  0
LINE
  5
A5
330
47
100
AcDbEntity
  8
0
  6
Continuous
 62
     7
100
AcDbLine
 10
156.5040013771083
 20
377.4709576362891
 30
0.0
 11
153.3863099234841
 21
378.3709576362892
 31
0.0
  0
LINE
  5
A6
330
47
100
AcDbEntity
  8
0
  6
Continuous
 62
     7
100
AcDbLine
 10
126.0642538359484
 20
427.2064202885773
 30
0.0
 11
125.9871740614714
 21
428.1521071199834
 31
0.0
  0
LINE
  5
A7
330
47
100
AcDbEntity
  8
0
  6
Continuous
 62
     7
100
AcDbLine
 10
119.3093583448018
 20
420.3688800105816
 30
0.0
 11
119.3093583448018
 21
428.2219735559534
 31
0.0
  0
LINE
  5
A8
330
47
100
AcDbEntity
  8
0
  6
Continuous
 62
     7
100
AcDbLine
 10
124.6861048435502
 20
427.4892226622743
 30
0.0
 11
126.0642538359484
 21
427.2064202885773
 31
0.0
  0
LINE
  5
A9
330
47
100
AcDbEntity
  8
0
  6
Continuous
 62
     7
100
AcDbLine
 10
155.9406305676232
 20
409.7943453558893
 30
0.0
 11
155.9406305676231
 21
417.647437233077
 31
0.0
  0
LINE
  5
AA
330
47
100
AcDbEntity
  8
0
  6
Continuous
 62
     7
100
AcDbLine
 10
162.6739686971374
 20
412.1472567957645
 30
0.0
 11
162.0239686971374
 21
411.6039917717525
 31
0.0
  0
LINE
  5
AB
330
47
100
AcDbEntity
  8
0
  6
Continuous
 62
     7
100
AcDbLine
 10
157.0239686971371
 20
418.9579688870418
 30
0.0
 11
157.0239686971371
 21
417.2148395300101
 31
0.0
  0
LINE
  5
AC
330
47
100
AcDbEntity
  8
0
  6
Continuous
 62
     7
100
AcDbLine
 10
165.7739686971374
 20
416.7690552817207
 30
0.0
 11
157.0239686971374
 21
409.1913329986069
 31
0.0
  0
LINE
  5
AD
330
47
100
AcDbEntity
  8
0
  6
Continuous
 62
     7
100
AcDbLine
 10
157.0239686971374
 20
409.1913329986069
 30
0.0
 11
155.9406305676232
 21
409.7943453558893
 31
0.0
  0
LINE
  5
AE
330
47
100
AcDbEntity
  8
0
  6
Continuous
 62
     7
100
AcDbLine
 10
155.9406305676232
 20
409.7943453558893
 30
0.0
 11
164.6906305676232
 21
417.3720676390031
 31
0.0
  0
LINE
  5
AF
330
47
100
AcDbEntity
  8
0
  6
Continuous
 62
     7
100
AcDbLine
 10
165.7739686971374
 20
416.7690552817207
 30
0.0
 11
164.6906305676232
 21
417.3720676390031
 31
0.0
  0
LINE
  5
B0
330
47
100
AcDbEntity
  8
0
  6
Continuous
 62
     7
100
AcDbLine
 10
165.7739686971371
 20
426.5356911701556
 30
0.0
 11
165.7739686971371
 21
424.7925618131239
 31
0.0
  0
LINE
  5
B1
330
47
100
AcDbEntity
  8
0
  6
Continuous
 62
     7
100
AcDbLine
 10
164.6906305676232
 20
417.3720676390031
 30
0.0
 11
164.6906305676232
 21
423.8543634720766
 31
0.0
  0
LINE
  5
B2
330
47
100
AcDbEntity
  8
0
  6
Continuous
 62
     7
100
AcDbLine
 10
157.0239686971371
 20
417.2148395300101
 30
0.0
 11
165.7739686971371
 21
424.7925618131239
 31
0.0
  0
LINE
  5
B3
330
47
100
AcDbEntity
  8
0
  6
Continuous
 62
     7
100
AcDbLine
 10
157.0239686971371
 20
418.9579688870418
 30
0.0
 11
165.7739686971371
 21
426.5356911701556
 31
0.0
  0
LINE
  5
B4
330
47
100
AcDbEntity
  8
0
  6
Continuous
 62
     7
100
AcDbLine
 10
127.0959979276228
 20
392.1409284094948
 30
0.0
 11
127.0959979276228
 21
391.5028795744545
 31
0.0
  0
LINE
  5
B5
330
47
100
AcDbEntity
  8
0
  6
Continuous
 62
     7
100
AcDbLine
 10
125.0136893812467
 20
386.0995474747754
 30
0.0
 11
125.4136893812468
 21
386.4459576362892
 31
0.0
  0
LINE
  5
B6
330
47
100
AcDbEntity
  8
0
  6
Continuous
 62
     7
100
AcDbLine
 10
125.0136893812468
 20
392.7420391093879
 30
0.0
 11
125.0136893812467
 21
386.0995474747754
 31
0.0
  0
LINE
  5
B7
330
47
100
AcDbEntity
  8
0
  6
Continuous
 62
     7
100
AcDbLine
 10
130.6136893812468
 20
391.1254583556569
 30
0.0
 11
130.6136893812468
 21
390.9492897359683
 31
0.0
  0
LINE
  5
B8
330
47
100
AcDbEntity
  8
0
  6
Continuous
 62
     7
100
AcDbLine
 10
130.2136893812468
 20
391.2409284094948
 30
0.0
 11
130.2136893812468
 21
390.6028795744545
 31
0.0
  0
LINE
  5
B9
330
47
100
AcDbEntity
  8
0
  6
Continuous
 62
     7
100
AcDbLine
 10
130.2136893812468
 20
390.6028795744545
 30
0.0
 11
130.6136893812468
 21
390.9492897359683
 31
0.0
  0
LINE
  5
BA
330
47
100
AcDbEntity
  8
0
  6
Continuous
 62
     7
100
AcDbLine
 10
125.4136893812468
 20
392.6265690555499
 30
0.0
 11
125.4136893812468
 21
386.4459576362892
 31
0.0
  0
LINE
  5
BB
330
47
100
AcDbEntity
  8
0
  6
Continuous
 62
     7
100
AcDbLine
 10
127.0959979276228
 20
391.5028795744545
 30
0.0
 11
130.2136893812468
 21
390.6028795744545
 31
0.0
  0
LINE
  5
BC
330
47
100
AcDbEntity
  8
0
  6
Continuous
 62
     7
100
AcDbLine
 10
156.9040013771083
 20
377.8173677978029
 30
0.0
 11
156.5040013771083
 21
377.4709576362891
 31
0.0
  0
LINE
  5
BD
330
47
100
AcDbEntity
  8
0
  6
Continuous
 62
     7
100
AcDbLine
 10
156.9040013771083
 20
383.5360990017119
 30
0.0
 11
156.9040013771083
 21
377.8173677978029
 31
0.0
  0
LINE
  5
BE
330
47
100
AcDbEntity
  8
0
  6
Continuous
 62
     7
100
AcDbLine
 10
156.5040013771083
 20
383.6515690555499
 30
0.0
 11
156.5040013771083
 21
377.4709576362891
 31
0.0
  0
LINE
  5
BF
330
47
100
AcDbEntity
  8
0
  6
Continuous
 62
     7
100
AcDbLine
 10
158.5863099234841
 20
384.8544946108515
 30
0.0
 11
158.5863099234841
 21
382.8742897359683
 31
0.0
  0
LINE
  5
C0
330
47
100
AcDbEntity
  8
0
  6
Continuous
 62
     7
100
AcDbLine
 10
162.1040013771081
 20
382.320699897482
 30
0.0
 11
161.7040013771081
 21
381.9742897359682
 31
0.0
  0
LINE
  5
C1
330
47
100
AcDbEntity
  8
0
  6
Continuous
 62
     7
100
AcDbLine
 10
162.1040013771081
 20
392.0618974961785
 30
0.0
 11
162.1040013771081
 21
382.320699897482
 31
0.0
  0
LINE
  5
C2
330
47
100
AcDbEntity
  8
0
  6
Continuous
 62
     7
100
AcDbLine
 10
162.507943293353
 20
389.2507287334868
 30
0.0
 11
162.507943293353
 21
392.4117214573
 31
0.0
  0
LINE
  5
C3
330
47
100
AcDbEntity
  8
0
  6
Continuous
 62
     7
100
AcDbLine
 10
161.7040013771081
 20
391.7154873346647
 30
0.0
 11
161.7040013771081
 21
381.9742897359682
 31
0.0
  0
LINE
  5
C4
330
47
100
AcDbEntity
  8
0
  6
Continuous
 62
     7
100
AcDbLine
 10
162.0239686971374
 20
411.6039917717525
 30
0.0
 11
162.0239686971374
 21
392.052980788354
 31
0.0
  0
LINE
  5
C5
330
47
100
AcDbEntity
  8
0
  6
Continuous
 62
     7
100
AcDbLine
 10
162.507943293353
 20
392.4117214573
 30
0.0
 11
162.507943293353
 21
392.6638247061121
 31
0.0
  0
LINE
  5
C6
330
47
100
AcDbEntity
  8
0
  6
Continuous
 62
     7
100
AcDbLine
 10
162.6739686971374
 20
392.6158973003285
 30
0.0
 11
162.6739686971374
 21
412.1472567957645
 31
0.0
  0
LINE
  5
C7
330
47
100
AcDbEntity
  8
0
  6
Continuous
 62
     7
100
AcDbLine
 10
165.7739686971374
 20
416.7690552817207
 30
0.0
 11
165.7739686971374
 21
391.0791897025694
 31
0.0
  0
LINE
  5
C8
330
47
100
AcDbEntity
  8
0
  6
Continuous
 62
     7
100
AcDbLine
 10
162.1040013771081
 20
391.7344728242047
 30
0.0
 11
162.507943293353
 21
391.6178648371642
 31
0.0
  0
LINE
  5
C9
330
47
100
AcDbEntity
  8
0
  6
Continuous
 62
     7
100
AcDbLine
 10
162.6739686971374
 20
392.6158973003285
 30
0.0
 11
162.0239686971374
 21
392.8035361378151
 31
0.0
  0
LINE
  5
CA
330
47
100
AcDbEntity
  8
0
  6
Continuous
 62
     7
100
AcDbLine
 10
162.507943293353
 20
389.2507287334868
 30
0.0
 11
163.3739686971374
 21
389.0007287334868
 31
0.0
  0
LINE
  5
CB
330
47
100
AcDbEntity
  8
0
  6
Continuous
 62
     7
100
AcDbLine
 10
161.7040013771081
 20
381.9742897359682
 30
0.0
 11
158.5863099234841
 21
382.8742897359683
 31
0.0
  0
LINE
  5
CC
330
47
100
AcDbEntity
  8
0
  6
Continuous
 62
     7
100
AcDbLine
 10
162.507943293353
 20
392.4117214573
 30
0.0
 11
161.3239686971374
 21
391.3863693795418
 31
0.0
  0
LINE
  5
CD
330
47
100
AcDbEntity
  8
0
  6
Continuous
 62
     7
100
AcDbLine
 10
118.2260306075934
 20
418.4738647533379
 30
0.0
 11
119.3518636325132
 21
418.1488647533379
 31
0.0
  0
LINE
  5
CE
330
47
100
AcDbEntity
  8
0
  6
Continuous
 62
     7
100
AcDbLine
 10
118.2260306075934
 20
420.3913329986074
 30
0.0
 11
118.2260306075934
 21
418.4738647533379
 31
0.0
  0
LINE
  5
CF
330
47
100
AcDbEntity
  8
0
  6
Continuous
 62
     7
100
AcDbLine
 10
124.5754483435712
 20
428.1637077114679
 30
0.0
 11
124.6861048435502
 21
427.4892226622743
 31
0.0
  0
LINE
  5
D0
330
47
100
AcDbEntity
  8
0
  6
Continuous
 62
     7
100
AcDbLine
 10
121.8959979276228
 20
393.6420391093878
 30
0.0
 11
121.8959979276228
 21
386.9995474747753
 31
0.0
  0
LINE
  5
D1
330
47
100
AcDbEntity
  8
0
  6
Continuous
 62
     7
100
AcDbLine
 10
121.8959979276228
 20
386.9995474747753
 30
0.0
 11
125.0136893812467
 21
386.0995474747754
 31
0.0
  0
LINE
  5
D2
330
47
100
AcDbEntity
  8
0
  6
Continuous
 62
     7
100
AcDbLine
 10
118.7260306075934
 20
418.3295271860405
 30
0.0
 11
118.7260306075934
 21
395.1344801213481
 31
0.0
  0
LINE
  5
D3
330
47
100
AcDbEntity
  8
0
  6
Continuous
 62
     7
100
AcDbLine
 10
118.2260306075934
 20
420.3913329986074
 30
0.0
 11
119.3093583448018
 21
420.3688800105816
 31
0.0
  0
LINE
  5
D4
330
47
100
AcDbEntity
  8
0
  6
Continuous
 62
     7
100
AcDbLine
 10
119.3518636325132
 20
418.1488647533379
 30
0.0
 11
119.3518636325132
 21
394.3764674194559
 31
0.0
  0
LINE
  5
D5
330
47
100
AcDbEntity
  8
0
  6
Continuous
 62
     7
100
AcDbLine
 10
119.3093583448018
 20
421.3295223396541
 30
0.0
 11
118.2260306075934
 21
420.3913329986074
 31
0.0
  0
LINE
  5
D6
330
47
100
AcDbEntity
  8
0
  6
Continuous
 62
     7
100
AcDbLine
 10
118.7260306075934
 20
395.1344801213481
 30
0.0
 11
119.3518636325132
 21
394.9538176886455
 31
0.0
  0
LINE
  5
D7
330
47
100
AcDbEntity
  8
0
  6
Continuous
 62
     7
100
AcDbLine
 10
119.3518636325132
 20
394.3764674194559
 30
0.0
 11
157.0239686971374
 21
383.5014674194555
 31
0.0
  0
SPLINE
  5
D8
330
47
100
AcDbEntity
  8
0
  6
Continuous
 62
     7
100
AcDbSpline
210
0.0
220
0.0
230
1.0
 70
     8
 71
     3
 72
     9
 73
     5
 74
     3
 42
0.000000001
 43
0.0000000001
 44
0.00000001
 40
0.0
 40
0.0
 40
0.0
 40
0.0
 40
0.5504310585466756
 40
1.100363218835541
 40
1.100363218835541
 40
1.100363218835541
 40
1.100363218835541
 10
119.3093583448018
 20
428.2219735559534
 30
0.0
 10
119.1287970574096
 20
428.2545548470769
 30
0.0
 10
118.76783813577
 20
428.319687878691
 30
0.0
 10
118.4065785204824
 20
428.3831319078492
 30
0.0
 10
118.2260306075942
 20
428.41483953001
 30
0.0
 11
119.3093583448018
 21
428.2219735559534
 31
0.0
 11
118.7675992392617
 21
428.3192947858797
 31
0.0
 11
118.2260306075942
 21
428.41483953001
 31
0.0
  0
SPLINE
  5
D9
330
47
100
AcDbEntity
  8
0
  6
Continuous
 62
     7
100
AcDbSpline
210
0.0
220
0.0
230
1.0
 70
     8
 71
     3
 72
     9
 73
     5
 74
     3
 42
0.000000001
 43
0.0000000001
 44
0.00000001
 40
0.0
 40
0.0
 40
0.0
 40
0.0
 40
1.13395575938411
 40
2.270006877911856
 40
2.270006877911856
 40
2.270006877911856
 40
2.270006877911856
 10
118.2260306075942
 20
430.1579688870417
 30
0.0
 10
118.5981936648829
 20
430.0918681647739
 30
0.0
 10
119.3432074705115
 20
429.9595445575628
 30
0.0
 10
120.0869283213922
 20
429.8201371706631
 30
0.0
 10
120.4591319955843
 20
429.7503691264759
 30
0.0
 11
118.2260306075942
 21
430.1579688870417
 31
0.0
 11
119.3421971354761
 21
429.9578990333696
 31
0.0
 11
120.4591319955843
 21
429.7503691264759
 31
0.0
  0
SPLINE
  5
DA
330
47
100
AcDbEntity
  8
0
  6
Continuous
 62
     7
100
AcDbSpline
210
0.0
220
0.0
230
1.0
 70
     8
 71
     3
 72
     9
 73
     5
 74
     3
 42
0.000000001
 43
0.0000000001
 44
0.00000001
 40
0.0
 40
0.0
 40
0.0
 40
0.0
 40
1.133955759384012
 40
2.270006877911769
 40
2.270006877911769
 40
2.270006877911769
 40
2.270006877911769
 10
126.9760306075943
 20
437.7356911701556
 30
0.0
 10
127.348193664883
 20
437.6695904478878
 30
0.0
 10
128.0932074705116
 20
437.5372668406768
 30
0.0
 10
128.8369283213922
 20
437.3978594537769
 30
0.0
 10
129.2091319955843
 20
437.3280914095897
 30
0.0
 11
126.9760306075943
 21
437.7356911701556
 31
0.0
 11
128.0921971354761
 21
437.5356213164835
 31
0.0
 11
129.2091319955843
 21
437.3280914095897
 31
0.0
  0
SPLINE
  5
DB
330
47
100
AcDbEntity
  8
0
  6
Continuous
 62
     7
100
AcDbSpline
210
0.0
220
0.0
230
1.0
 70
     8
 71
     3
 72
     9
 73
     5
 74
     3
 42
0.000000001
 43
0.0000000001
 44
0.00000001
 40
0.0
 40
0.0
 40
0.0
 40
0.0
 40
16.07918056622538
 40
32.53965273981096
 40
32.53965273981096
 40
32.53965273981096
 40
32.53965273981096
 10
134.7296831417197
 20
436.1952494767839
 30
0.0
 10
139.9411172472205
 20
434.9197254847772
 30
0.0
 10
150.48756613385
 20
432.3384305052921
 30
0.0
 10
160.6388510955362
 20
428.4849888471995
 30
0.0
 10
165.7739686971371
 20
426.5356911701556
 30
0.0
 11
134.7296831417197
 21
436.1952494767839
 31
0.0
 11
150.2674961265217
 21
432.0580505035941
 31
0.0
 11
165.7739686971371
 21
426.5356911701556
 31
0.0
  0
SPLINE
  5
DC
330
47
100
AcDbEntity
  8
0
  6
Continuous
 62
     7
100
AcDbSpline
210
0.0
220
0.0
230
1.0
 70
     8
 71
     3
 72
     9
 73
     5
 74
     3
 42
0.000000001
 43
0.0000000001
 44
0.00000001
 40
0.0
 40
0.0
 40
0.0
 40
0.0
 40
0.5830385713687334
 40
1.166518278705775
 40
1.166518278705775
 40
1.166518278705775
 40
1.166518278705775
 10
155.9406305676231
 20
417.647437233077
 30
0.0
 10
156.1212686441088
 20
417.5757405253559
 30
0.0
 10
156.4826814632286
 20
417.4322928445006
 30
0.0
 10
156.8434941394462
 20
417.2873422460959
 30
0.0
 10
157.0239686971371
 20
417.2148395300101
 30
0.0
 11
155.9406305676231
 21
417.647437233077
 31
0.0
 11
156.4823948711168
 21
417.4319716553625
 31
0.0
 11
157.0239686971371
 21
417.2148395300101
 31
0.0
  0
SPLINE
  5
DD
330
47
100
AcDbEntity
  8
0
  6
Continuous
 62
     7
100
AcDbSpline
210
0.0
220
0.0
230
1.0
 70
     8
 71
     3
 72
     9
 73
     5
 74
     3
 42
0.000000001
 43
0.0000000001
 44
0.00000001
 40
0.0
 40
0.0
 40
0.0
 40
0.0
 40
16.07918056622538
 40
32.53965273981098
 40
32.53965273981098
 40
32.53965273981098
 40
32.53965273981098
 10
125.9796831417197
 20
428.6175271936701
 30
0.0
 10
131.1911172472205
 20
427.3420032016633
 30
0.0
 10
141.73756613385
 20
424.7607082221786
 30
0.0
 10
151.8888510955362
 20
420.9072665640855
 30
0.0
 10
157.0239686971371
 20
418.9579688870418
 30
0.0
 11
125.9796831417197
 21
428.6175271936701
 31
0.0
 11
141.5174961265217
 21
424.4803282204804
 31
0.0
 11
157.0239686971371
 21
418.9579688870418
 31
0.0
  0
ENDBLK
  5
49
330
47
100
AcDbEntity
  8
0
100
AcDbBlockEnd
  0
BLOCK
  5
4C
330
4A
100
AcDbEntity
  8
0
100
AcDbBlockBegin
  2
Allg1
 70
     0
 10
141.9999999999998
 20
407.0
 30
0.0
  3
Allg1
  1

  0
INSERT
  5
4B
330
4A
100
AcDbEntity
  8
0
100
AcDbBlockReference
  2
PT_5___ST-select__1
 10
118.2260306075934
 20
377.4709576362891
 30
0.0
  0
MTEXT
  5
DF
330
4A
100
AcDbEntity
  8
1
 62
     6
100
AcDbMText
 10
142.0
 20
370.2712619011134
 30
0.0
 40
5.0
 41
0.0
 71
     2
 72
     1
  1
 
  7
CONVERTER_11
 73
     1
 44
1.32052821128451
  0
ENDBLK
  5
4D
330
4A
100
AcDbEntity
  8
0
100
AcDbBlockEnd
  0
BLOCK
  5
4F
330
4E
100
AcDbEntity
  8
0
100
AcDbBlockBegin
  2
_rahmen
 70
     0
 10
193.900000234839
 20
332.8517110923839
 30
0.0
  3
_rahmen
  1

  0
LINE
  5
E0
330
4E
100
AcDbEntity
  8
1
  6
Continuous
 62
     6
100
AcDbLine
 10
64.35519570808893
 20
363.351711092384
 30
0.0
 11
193.9000002348406
 21
363.351711092384
 31
0.0
  0
LINE
  5
E1
330
4E
100
AcDbEntity
  8
1
  6
Continuous
 62
     7
100
AcDbLine
 10
82.55519570808895
 20
342.101711092384
 30
0.0
 11
100.7551957080889
 21
342.101711092384
 31
0.0
  0
LINE
  5
E2
330
4E
100
AcDbEntity
  8
1
  6
Continuous
 62
     6
100
AcDbLine
 10
82.55519570808895
 20
337.851711092384
 30
0.0
 11
64.35519570808893
 21
337.8517110923839
 31
0.0
  0
LINE
  5
E3
330
4E
100
AcDbEntity
  8
1
  6
Continuous
 62
     7
100
AcDbLine
 10
82.55519570808895
 20
342.101711092384
 30
0.0
 11
82.55519570808895
 21
337.851711092384
 31
0.0
  0
LINE
  5
E4
330
4E
100
AcDbEntity
  8
1
  6
Continuous
 62
     7
100
AcDbLine
 10
100.7551957080889
 20
342.101711092384
 30
0.0
 11
100.7551957080889
 21
337.8517110923839
 31
0.0
  0
LINE
  5
E5
330
4E
100
AcDbEntity
  8
1
  6
Continuous
 62
     7
100
AcDbLine
 10
64.35519570808893
 20
342.1017110923839
 30
0.0
 11
64.35519570808893
 21
337.8517110923839
 31
0.0
  0
LINE
  5
E6
330
4E
100
AcDbEntity
  8
1
  6
Continuous
 62
     7
100
AcDbLine
 10
64.35519570808893
 20
342.1017110923839
 30
0.0
 11
82.55519570808895
 21
342.101711092384
 31
0.0
  0
LINE
  5
E7
330
4E
100
AcDbEntity
  8
1
  6
Continuous
 62
     2
100
AcDbLine
 10
73.59185059465153
 20
361.4767110923839
 30
0.0
 11
73.59185059465153
 21
356.4767110923839
 31
0.0
  0
LINE
  5
E8
330
4E
100
AcDbEntity
  8
1
  6
Continuous
 62
     2
100
AcDbLine
 10
73.59185059465153
 20
356.4767110923839
 30
0.0
 11
68.59185059465153
 21
357.7267110923839
 31
0.0
  0
LINE
  5
E9
330
4E
100
AcDbEntity
  8
1
  6
Continuous
 62
     2
100
AcDbLine
 10
68.59185059465153
 20
357.7267110923839
 30
0.0
 11
68.59185059465153
 21
360.2267110923839
 31
0.0
  0
LINE
  5
EA
330
4E
100
AcDbEntity
  8
1
  6
Continuous
 62
     2
100
AcDbLine
 10
68.59185059465153
 20
360.2267110923839
 30
0.0
 11
73.59185059465153
 21
361.4767110923839
 31
0.0
  0
LINE
  5
EB
330
4E
100
AcDbEntity
  8
1
  6
Continuous
 62
     6
100
AcDbLine
 10
-58.09999976515928
 20
337.851711092384
 30
0.0
 11
-93.09999976515917
 21
337.851711092384
 31
0.0
  0
LINE
  5
EC
330
4E
100
AcDbEntity
  8
1
  6
Continuous
 62
     6
100
AcDbLine
 10
193.9000002348406
 20
354.851711092384
 30
0.0
 11
193.9000002348402
 21
346.351711092384
 31
0.0
  0
LINE
  5
ED
330
4E
100
AcDbEntity
  8
1
  6
Continuous
 62
     6
100
AcDbLine
 10
100.7551957080889
 20
337.8517110923839
 30
0.0
 11
100.4000002348389
 21
337.851711092384
 31
0.0
  0
LINE
  5
EE
330
4E
100
AcDbEntity
  8
1
  6
Continuous
 62
     6
100
AcDbLine
 10
-51.89999976516128
 20
337.8517110923839
 30
0.0
 11
-58.09999976515928
 21
337.851711092384
 31
0.0
  0
LINE
  5
EF
330
4E
100
AcDbEntity
  8
1
  6
Continuous
 62
     7
100
AcDbLine
 10
100.7551957080889
 20
354.851711092384
 30
0.0
 11
100.7551957080889
 21
342.101711092384
 31
0.0
  0
LINE
  5
F0
330
4E
100
AcDbEntity
  8
1
  6
Continuous
 62
     7
100
AcDbLine
 10
64.35519570808893
 20
354.851711092384
 30
0.0
 11
64.35519570808893
 21
342.1017110923839
 31
0.0
  0
LINE
  5
F1
330
4E
100
AcDbEntity
  8
1
  6
Continuous
 62
     6
100
AcDbLine
 10
50.40000023483896
 20
337.851711092384
 30
0.0
 11
0.40000023483873
 21
337.851711092384
 31
0.0
  0
LINE
  5
F2
330
4E
100
AcDbEntity
  8
1
  6
Continuous
 62
     6
100
AcDbLine
 10
-51.89999976516128
 20
337.8517110923839
 30
0.0
 11
-49.59999976516104
 21
337.851711092384
 31
0.0
  0
LINE
  5
F3
330
4E
100
AcDbEntity
  8
1
  6
Continuous
 62
     6
100
AcDbLine
 10
100.7551957080889
 20
337.8517110923839
 30
0.0
 11
150.4000002348389
 21
337.851711092384
 31
0.0
  0
LINE
  5
F4
330
4E
100
AcDbEntity
  8
1
  6
Continuous
 62
     6
100
AcDbLine
 10
193.900000234839
 20
337.851711092384
 30
0.0
 11
193.9000002348402
 21
346.351711092384
 31
0.0
  0
LINE
  5
F5
330
4E
100
AcDbEntity
  8
1
  6
Continuous
 62
     2
100
AcDbLine
 10
-98.09999976516013
 20
337.851711092384
 30
0.0
 11
-98.09999976516013
 21
332.8517110923839
 31
0.0
  0
LINE
  5
F6
330
4E
100
AcDbEntity
  8
1
  6
Continuous
 62
     2
100
AcDbLine
 10
-93.09999976515917
 20
337.851711092384
 30
0.0
 11
-98.09999976516013
 21
337.851711092384
 31
0.0
  0
LINE
  5
F7
330
4E
100
AcDbEntity
  8
1
  6
Continuous
 62
     2
100
AcDbLine
 10
-93.09999976515917
 20
332.8517110923839
 30
0.0
 11
-49.59999976516104
 21
332.8517110923839
 31
0.0
  0
LINE
  5
F8
330
4E
100
AcDbEntity
  8
1
  6
Continuous
 62
     2
100
AcDbLine
 10
-93.09999976515917
 20
337.851711092384
 30
0.0
 11
-93.09999976515917
 21
332.8517110923839
 31
0.0
  0
LINE
  5
F9
330
4E
100
AcDbEntity
  8
1
  6
Continuous
 62
     2
100
AcDbLine
 10
150.4000002348389
 20
332.8517110923839
 30
0.0
 11
100.4000002348389
 21
332.8517110923839
 31
0.0
  0
LINE
  5
FA
330
4E
100
AcDbEntity
  8
1
  6
Continuous
 62
     2
100
AcDbLine
 10
150.4000002348389
 20
332.8517110923839
 30
0.0
 11
150.4000002348389
 21
337.851711092384
 31
0.0
  0
LINE
  5
FB
330
4E
100
AcDbEntity
  8
1
  6
Continuous
 62
     2
100
AcDbLine
 10
100.4000002348389
 20
332.8517110923839
 30
0.0
 11
100.4000002348389
 21
337.851711092384
 31
0.0
  0
LINE
  5
FC
330
4E
100
AcDbEntity
  8
1
  6
Continuous
 62
     2
100
AcDbLine
 10
50.40000023483896
 20
332.8517110923839
 30
0.0
 11
100.4000002348389
 21
332.8517110923839
 31
0.0
  0
LINE
  5
FD
330
4E
100
AcDbEntity
  8
1
  6
Continuous
 62
     2
100
AcDbLine
 10
50.40000023483896
 20
332.8517110923839
 30
0.0
 11
50.40000023483896
 21
337.851711092384
 31
0.0
  0
LINE
  5
FE
330
4E
100
AcDbEntity
  8
1
  6
Continuous
 62
     2
100
AcDbLine
 10
0.40000023483873
 20
332.8517110923839
 30
0.0
 11
50.40000023483896
 21
332.8517110923839
 31
0.0
  0
LINE
  5
FF
330
4E
100
AcDbEntity
  8
1
  6
Continuous
 62
     2
100
AcDbLine
 10
0.40000023483873
 20
332.8517110923839
 30
0.0
 11
0.40000023483873
 21
337.851711092384
 31
0.0
  0
LINE
  5
100
330
4E
100
AcDbEntity
  8
1
  6
Continuous
 62
     2
100
AcDbLine
 10
-49.59999976516104
 20
332.8517110923839
 30
0.0
 11
0.40000023483873
 21
332.8517110923839
 31
0.0
  0
LINE
  5
101
330
4E
100
AcDbEntity
  8
1
  6
Continuous
 62
     2
100
AcDbLine
 10
-49.59999976516104
 20
332.8517110923839
 30
0.0
 11
-49.59999976516104
 21
337.851711092384
 31
0.0
  0
LINE
  5
102
330
4E
100
AcDbEntity
  8
1
  6
Continuous
 62
     6
100
AcDbLine
 10
-93.09999976515934
 20
387.8517110923841
 30
0.0
 11
-93.09999976515917
 21
337.851711092384
 31
0.0
  0
LINE
  5
103
330
4E
100
AcDbEntity
  8
1
  6
Continuous
 62
     2
100
AcDbLine
 10
-98.09999976516013
 20
387.8517110923841
 30
0.0
 11
-98.09999976516013
 21
337.851711092384
 31
0.0
  0
LINE
  5
104
330
4E
100
AcDbEntity
  8
1
  6
Continuous
 62
     2
100
AcDbLine
 10
-98.09999976516013
 20
387.8517110923841
 30
0.0
 11
-93.09999976515934
 21
387.8517110923841
 31
0.0
  0
LINE
  5
105
330
4E
100
AcDbEntity
  8
1
  6
Continuous
 62
     6
100
AcDbLine
 10
-93.09999976515957
 20
437.8517110923839
 30
0.0
 11
-93.09999976515934
 21
387.8517110923841
 31
0.0
  0
LINE
  5
106
330
4E
100
AcDbEntity
  8
1
  6
Continuous
 62
     2
100
AcDbLine
 10
-98.09999976516013
 20
437.8517110923839
 30
0.0
 11
-98.09999976516013
 21
387.8517110923841
 31
0.0
  0
LINE
  5
107
330
4E
100
AcDbEntity
  8
1
  6
Continuous
 62
     2
100
AcDbLine
 10
-98.09999976516013
 20
437.8517110923839
 30
0.0
 11
-93.09999976515957
 21
437.8517110923839
 31
0.0
  0
LINE
  5
108
330
4E
100
AcDbEntity
  8
1
  6
Continuous
 62
     6
100
AcDbLine
 10
-93.09999976516008
 20
487.851711092384
 30
0.0
 11
-93.09999976515957
 21
437.8517110923839
 31
0.0
  0
LINE
  5
109
330
4E
100
AcDbEntity
  8
1
  6
Continuous
 62
     2
100
AcDbLine
 10
-98.09999976516013
 20
487.851711092384
 30
0.0
 11
-98.09999976516013
 21
437.8517110923839
 31
0.0
  0
LINE
  5
10A
330
4E
100
AcDbEntity
  8
1
  6
Continuous
 62
     2
100
AcDbLine
 10
-98.09999976516013
 20
487.851711092384
 30
0.0
 11
-93.09999976516008
 21
487.851711092384
 31
0.0
  0
LINE
  5
10B
330
4E
100
AcDbEntity
  8
1
  6
Continuous
 62
     6
100
AcDbLine
 10
-93.09999976516013
 20
522.851711092384
 30
0.0
 11
-93.09999976516008
 21
487.851711092384
 31
0.0
  0
LINE
  5
10C
330
4E
100
AcDbEntity
  8
1
  6
Continuous
 62
     2
100
AcDbLine
 10
-98.09999976516013
 20
542.851711092384
 30
0.0
 11
-98.09999976516013
 21
487.851711092384
 31
0.0
  0
LINE
  5
10D
330
4E
100
AcDbEntity
  8
1
  6
Continuous
 62
     2
100
AcDbLine
 10
-98.09999976516013
 20
332.8517110923839
 30
0.0
 11
-93.09999976515917
 21
332.8517110923839
 31
0.0
  0
LINE
  5
10E
330
4E
100
AcDbEntity
  8
1
  6
Continuous
 62
     2
100
AcDbLine
 10
50.40000023483896
 20
542.851711092384
 30
0.0
 11
50.40000023483896
 21
533.6430192476827
 31
0.0
  0
LINE
  5
10F
330
4E
100
AcDbEntity
  8
1
  6
Continuous
 62
     2
100
AcDbLine
 10
50.40000023483896
 20
542.851711092384
 30
0.0
 11
-98.09999976516013
 21
542.851711092384
 31
0.0
  0
LINE
  5
110
330
4E
100
AcDbEntity
  8
1
  6
Continuous
 62
     2
100
AcDbLine
 10
198.9000002348379
 20
337.851711092384
 30
0.0
 11
198.9000002348379
 21
387.8517110923841
 31
0.0
  0
LINE
  5
111
330
4E
100
AcDbEntity
  8
1
  6
Continuous
 62
     2
100
AcDbLine
 10
198.9000002348379
 20
487.851711092384
 30
0.0
 11
198.9000002348379
 21
542.851711092384
 31
0.0
  0
LINE
  5
112
330
4E
100
AcDbEntity
  8
1
  6
Continuous
 62
     6
100
AcDbLine
 10
193.9000002348381
 20
487.851711092384
 30
0.0
 11
193.9000002348379
 21
522.851711092384
 31
0.0
  0
LINE
  5
113
330
4E
100
AcDbEntity
  8
1
  6
Continuous
 62
     2
100
AcDbLine
 10
193.9000002348381
 20
487.851711092384
 30
0.0
 11
198.9000002348379
 21
487.851711092384
 31
0.0
  0
LINE
  5
114
330
4E
100
AcDbEntity
  8
1
  6
Continuous
 62
     2
100
AcDbLine
 10
198.9000002348379
 20
437.8517110923839
 30
0.0
 11
198.9000002348379
 21
487.851711092384
 31
0.0
  0
LINE
  5
115
330
4E
100
AcDbEntity
  8
1
  6
Continuous
 62
     6
100
AcDbLine
 10
193.9000002348394
 20
437.8517110923839
 30
0.0
 11
193.9000002348381
 21
487.851711092384
 31
0.0
  0
LINE
  5
116
330
4E
100
AcDbEntity
  8
1
  6
Continuous
 62
     2
100
AcDbLine
 10
193.9000002348394
 20
437.8517110923839
 30
0.0
 11
198.9000002348379
 21
437.8517110923839
 31
0.0
  0
LINE
  5
117
330
4E
100
AcDbEntity
  8
1
  6
Continuous
 62
     2
100
AcDbLine
 10
198.9000002348379
 20
387.8517110923841
 30
0.0
 11
198.9000002348379
 21
437.8517110923839
 31
0.0
  0
LINE
  5
118
330
4E
100
AcDbEntity
  8
1
  6
Continuous
 62
     6
100
AcDbLine
 10
193.9000002348398
 20
387.8517110923841
 30
0.0
 11
193.9000002348394
 21
437.8517110923839
 31
0.0
  0
LINE
  5
119
330
4E
100
AcDbEntity
  8
1
  6
Continuous
 62
     2
100
AcDbLine
 10
193.9000002348398
 20
387.8517110923841
 30
0.0
 11
198.9000002348379
 21
387.8517110923841
 31
0.0
  0
LINE
  5
11A
330
4E
100
AcDbEntity
  8
1
  6
Continuous
 62
     6
100
AcDbLine
 10
193.9000002348379
 20
522.851711092384
 30
0.0
 11
-93.09999976516013
 21
522.851711092384
 31
0.0
  0
LINE
  5
11B
330
4E
100
AcDbEntity
  8
1
  6
Continuous
 62
     2
100
AcDbLine
 10
198.9000002348379
 20
542.851711092384
 30
0.0
 11
50.40000023483896
 21
542.851711092384
 31
0.0
  0
LINE
  5
11C
330
4E
100
AcDbEntity
  8
1
  6
Continuous
 62
     6
100
AcDbLine
 10
193.9000002348406
 20
354.851711092384
 30
0.0
 11
193.9000002348398
 21
387.8517110923841
 31
0.0
  0
LINE
  5
11D
330
4E
100
AcDbEntity
  8
1
  6
Continuous
 62
     2
100
AcDbLine
 10
193.900000234839
 20
332.8517110923839
 30
0.0
 11
150.4000002348389
 21
332.8517110923839
 31
0.0
  0
LINE
  5
11E
330
4E
100
AcDbEntity
  8
1
  6
Continuous
 62
     2
100
AcDbLine
 10
198.9000002348379
 20
332.8517110923839
 30
0.0
 11
193.900000234839
 21
332.8517110923839
 31
0.0
  0
LINE
  5
11F
330
4E
100
AcDbEntity
  8
1
  6
Continuous
 62
     2
100
AcDbLine
 10
198.9000002348379
 20
332.8517110923839
 30
0.0
 11
198.9000002348379
 21
337.851711092384
 31
0.0
  0
LINE
  5
120
330
4E
100
AcDbEntity
  8
1
  6
Continuous
 62
     6
100
AcDbLine
 10
64.35519570808893
 20
354.851711092384
 30
0.0
 11
100.7551957080889
 21
354.851711092384
 31
0.0
  0
LINE
  5
121
330
4E
100
AcDbEntity
  8
1
  6
Continuous
 62
     2
100
AcDbLine
 10
193.900000234839
 20
337.851711092384
 30
0.0
 11
193.900000234839
 21
332.8517110923839
 31
0.0
  0
LINE
  5
122
330
4E
100
AcDbEntity
  8
1
  6
Continuous
 62
     2
100
AcDbLine
 10
193.900000234839
 20
337.851711092384
 30
0.0
 11
198.9000002348379
 21
337.851711092384
 31
0.0
  0
LINE
  5
123
330
4E
100
AcDbEntity
  8
1
  6
Continuous
 62
     6
100
AcDbLine
 10
100.4000002348389
 20
337.851711092384
 30
0.0
 11
82.55519570808895
 21
337.851711092384
 31
0.0
  0
LINE
  5
124
330
4E
100
AcDbEntity
  8
1
  6
Continuous
 62
     6
100
AcDbLine
 10
150.4000002348389
 20
337.851711092384
 30
0.0
 11
193.900000234839
 21
337.851711092384
 31
0.0
  0
LINE
  5
125
330
4E
100
AcDbEntity
  8
1
  6
Continuous
 62
     6
100
AcDbLine
 10
0.40000023483873
 20
337.851711092384
 30
0.0
 11
-4.64480429191104
 21
337.851711092384
 31
0.0
  0
LINE
  5
126
330
4E
100
AcDbEntity
  8
1
  6
Continuous
 62
     6
100
AcDbLine
 10
50.40000023483896
 20
337.851711092384
 30
0.0
 11
64.35519570808893
 21
337.8517110923839
 31
0.0
  0
LINE
  5
127
102
{ACAD_REACTORS
330
211
330
212
102
}
330
4E
100
AcDbEntity
  8
0
  6
Continuous
 62
     2
100
AcDbLine
 10
71.86982165023574
 20
349.9242258485961
 30
0.0
 11
71.86982165023574
 21
350.5297611371029
 31
0.0
  0
LINE
  5
128
102
{ACAD_REACTORS
330
211
330
212
102
}
330
4E
100
AcDbEntity
  8
0
  6
Continuous
 62
     2
100
AcDbLine
 10
71.86982165023574
 20
347.1240912419648
 30
0.0
 11
71.86982165023574
 21
347.7059426486599
 31
0.0
  0
LINE
  5
129
102
{ACAD_REACTORS
330
213
330
214
102
}
330
4E
100
AcDbEntity
  8
0
  6
Continuous
 62
     2
100
AcDbLine
 10
94.49930808571494
 20
347.4137553100878
 30
0.0
 11
94.49930808571494
 21
345.1452110924003
 31
0.0
  0
LINE
  5
12A
102
{ACAD_REACTORS
330
213
330
214
102
}
330
4E
100
AcDbEntity
  8
0
  6
Continuous
 62
     2
100
AcDbLine
 10
93.11825430672735
 20
348.1990206162109
 30
0.0
 11
96.50319982535603
 21
348.1990206162114
 31
0.0
  0
LINE
  5
12B
102
{ACAD_REACTORS
330
213
330
214
102
}
330
4E
100
AcDbEntity
  8
0
  6
Continuous
 62
     2
100
AcDbLine
 10
96.50319982535603
 20
347.4137553100878
 30
0.0
 11
96.50319982535603
 21
348.1990206162114
 31
0.0
  0
LINE
  5
12C
102
{ACAD_REACTORS
330
213
330
214
102
}
330
4E
100
AcDbEntity
  8
0
  6
Continuous
 62
     2
100
AcDbLine
 10
95.69210078788265
 20
347.4137553100878
 30
0.0
 11
96.50319982535603
 21
347.4137553100878
 31
0.0
  0
LINE
  5
12D
102
{ACAD_REACTORS
330
213
330
214
102
}
330
4E
100
AcDbEntity
  8
0
  6
Continuous
 62
     2
100
AcDbLine
 10
95.69210078788265
 20
345.1452110924003
 30
0.0
 11
95.69210078788265
 21
347.4137553100878
 31
0.0
  0
LINE
  5
12E
102
{ACAD_REACTORS
330
213
330
214
102
}
330
4E
100
AcDbEntity
  8
0
  6
Continuous
 62
     2
100
AcDbLine
 10
94.49930808571494
 20
345.1452110924003
 30
0.0
 11
95.69210078788265
 21
345.1452110924003
 31
0.0
  0
LINE
  5
12F
102
{ACAD_REACTORS
330
209
330
20A
102
}
330
4E
100
AcDbEntity
  8
0
  6
Continuous
 62
     2
100
AcDbLine
 10
93.80271714765044
 20
351.5582110923858
 30
0.0
 11
92.39999292990115
 21
351.5582110923858
 31
0.0
  0
LINE
  5
130
102
{ACAD_REACTORS
330
209
330
20A
102
}
330
4E
100
AcDbEntity
  8
0
  6
Continuous
 62
     2
100
AcDbLine
 10
93.80271714765044
 20
351.5582110923858
 30
0.0
 11
94.40388466954224
 21
350.8783877708303
 31
0.0
  0
LINE
  5
131
102
{ACAD_REACTORS
330
209
330
20A
102
}
330
4E
100
AcDbEntity
  8
0
  6
Continuous
 62
     2
100
AcDbLine
 10
94.40388466954224
 20
350.8783877708303
 30
0.0
 11
95.00505219143503
 21
351.5582110923858
 31
0.0
  0
LINE
  5
132
102
{ACAD_REACTORS
330
209
330
20A
102
}
330
4E
100
AcDbEntity
  8
0
  6
Continuous
 62
     2
100
AcDbLine
 10
95.10524677841573
 20
350.0852605623496
 30
0.0
 11
96.40777640918225
 21
351.5582110923858
 31
0.0
  0
LINE
  5
133
102
{ACAD_REACTORS
330
209
330
20A
102
}
330
4E
100
AcDbEntity
  8
0
  6
Continuous
 62
     2
100
AcDbLine
 10
95.10524677841573
 20
350.0852605623496
 30
0.0
 11
96.50319982535603
 21
348.5044015685746
 31
0.0
  0
LINE
  5
134
102
{ACAD_REACTORS
330
209
330
20A
102
}
330
4E
100
AcDbEntity
  8
0
  6
Continuous
 62
     2
100
AcDbLine
 10
95.10047560760773
 20
348.5044015685746
 30
0.0
 11
96.50319982535603
 21
348.5044015685746
 31
0.0
  0
LINE
  5
135
102
{ACAD_REACTORS
330
209
330
20A
102
}
330
4E
100
AcDbEntity
  8
0
  6
Continuous
 62
     2
100
AcDbLine
 10
94.40388466954224
 20
349.2921333538683
 30
0.0
 11
95.10047560760773
 21
348.5044015685746
 31
0.0
  0
LINE
  5
136
102
{ACAD_REACTORS
330
207
330
208
102
}
330
4E
100
AcDbEntity
  8
0
  6
Continuous
 62
     2
100
AcDbLine
 10
90.94478583325855
 20
351.5582110923858
 30
0.0
 11
92.18529024351145
 21
351.5582110923858
 31
0.0
  0
LINE
  5
137
102
{ACAD_REACTORS
330
207
330
208
102
}
330
4E
100
AcDbEntity
  8
0
  6
Continuous
 62
     2
100
AcDbLine
 10
92.18529024351145
 20
351.5582110923858
 30
0.0
 11
92.18529024351145
 21
348.5044015685746
 31
0.0
  0
LINE
  5
138
102
{ACAD_REACTORS
330
207
330
208
102
}
330
4E
100
AcDbEntity
  8
0
  6
Continuous
 62
     2
100
AcDbLine
 10
90.94478583325855
 20
348.5044015685746
 30
0.0
 11
90.94478583325855
 21
351.5582110923858
 31
0.0
  0
LINE
  5
139
102
{ACAD_REACTORS
330
205
330
206
102
}
330
4E
100
AcDbEntity
  8
0
  6
Continuous
 62
     2
100
AcDbLine
 10
89.47647575072094
 20
346.3667349019248
 30
0.0
 11
89.77664098791334
 21
347.1345498679115
 31
0.0
  0
LINE
  5
13A
102
{ACAD_REACTORS
330
205
330
206
102
}
330
4E
100
AcDbEntity
  8
0
  6
Continuous
 62
     2
100
AcDbLine
 10
88.99894014610013
 20
345.1452110924003
 30
0.0
 11
89.21042019957594
 21
345.6861716366182
 31
0.0
  0
LINE
  5
13B
102
{ACAD_REACTORS
330
205
330
206
102
}
330
4E
100
AcDbEntity
  8
0
  6
Continuous
 62
     2
100
AcDbLine
 10
89.15638878278645
 20
348.1990206162114
 30
0.0
 11
87.75843573584714
 21
345.1452110924003
 31
0.0
  0
LINE
  5
13C
102
{ACAD_REACTORS
330
205
330
206
102
}
330
4E
100
AcDbEntity
  8
0
  6
Continuous
 62
     2
100
AcDbLine
 10
91.79484623997945
 20
345.1452110924003
 30
0.0
 11
90.55434182972553
 21
345.1452110924003
 31
0.0
  0
LINE
  5
13D
102
{ACAD_REACTORS
330
205
330
206
102
}
330
4E
100
AcDbEntity
  8
0
  6
Continuous
 62
     2
100
AcDbLine
 10
89.21042019957594
 20
345.6861716366182
 30
0.0
 11
90.34286177624975
 21
345.6861716366182
 31
0.0
  0
LINE
  5
13E
102
{ACAD_REACTORS
330
203
330
204
102
}
330
4E
100
AcDbEntity
  8
0
  6
Continuous
 62
     2
100
AcDbLine
 10
85.60092359666493
 20
347.4137553100878
 30
0.0
 11
86.41202263413953
 21
347.4137553100878
 31
0.0
  0
LINE
  5
13F
102
{ACAD_REACTORS
330
203
330
204
102
}
330
4E
100
AcDbEntity
  8
0
  6
Continuous
 62
     2
100
AcDbLine
 10
88.41591437377855
 20
348.1990206162114
 30
0.0
 11
85.60092359666493
 21
348.1990206162114
 31
0.0
  0
LINE
  5
140
102
{ACAD_REACTORS
330
203
330
204
102
}
330
4E
100
AcDbEntity
  8
0
  6
Continuous
 62
     2
100
AcDbLine
 10
88.41591437377855
 20
347.4137553100878
 30
0.0
 11
88.41591437377855
 21
348.1990206162114
 31
0.0
  0
LINE
  5
141
102
{ACAD_REACTORS
330
203
330
204
102
}
330
4E
100
AcDbEntity
  8
0
  6
Continuous
 62
     2
100
AcDbLine
 10
87.60481533630605
 20
347.4137553100878
 30
0.0
 11
88.41591437377855
 21
347.4137553100878
 31
0.0
  0
LINE
  5
142
102
{ACAD_REACTORS
330
203
330
204
102
}
330
4E
100
AcDbEntity
  8
0
  6
Continuous
 62
     2
100
AcDbLine
 10
87.60481533630605
 20
345.1452110924003
 30
0.0
 11
87.60481533630605
 21
347.4137553100878
 31
0.0
  0
LINE
  5
143
102
{ACAD_REACTORS
330
201
330
202
102
}
330
4E
100
AcDbEntity
  8
0
  6
Continuous
 62
     2
100
AcDbLine
 10
88.27293018040405
 20
348.5044015685746
 30
0.0
 11
88.27293018040405
 21
349.8131770787793
 31
0.0
  0
LINE
  5
144
102
{ACAD_REACTORS
330
201
330
202
102
}
330
4E
100
AcDbEntity
  8
0
  6
Continuous
 62
     2
100
AcDbLine
 10
87.08013747823753
 20
351.5582110923858
 30
0.0
 11
87.08013747823753
 21
348.5044015685746
 31
0.0
  0
LINE
  5
145
102
{ACAD_REACTORS
330
201
330
202
102
}
330
4E
100
AcDbEntity
  8
0
  6
Continuous
 62
     2
100
AcDbLine
 10
88.27293018040405
 20
351.5582110923858
 30
0.0
 11
87.08013747823753
 21
351.5582110923858
 31
0.0
  0
LINE
  5
146
102
{ACAD_REACTORS
330
201
330
202
102
}
330
4E
100
AcDbEntity
  8
0
  6
Continuous
 62
     2
100
AcDbLine
 10
89.51343459065805
 20
351.5582110923858
 30
0.0
 11
89.51343459065805
 21
350.2494355821806
 31
0.0
  0
LINE
  5
147
102
{ACAD_REACTORS
330
1FF
330
200
102
}
330
4E
100
AcDbEntity
  8
0
  6
Continuous
 62
     2
100
AcDbLine
 10
81.83169865781784
 20
348.1990206162114
 30
0.0
 11
81.83169865781784
 21
345.1452110924003
 31
0.0
  0
LINE
  5
148
102
{ACAD_REACTORS
330
1FF
330
200
102
}
330
4E
100
AcDbEntity
  8
0
  6
Continuous
 62
     2
100
AcDbLine
 10
83.02449135998543
 20
348.1990206162114
 30
0.0
 11
81.83169865781784
 21
348.1990206162114
 31
0.0
  0
LINE
  5
149
102
{ACAD_REACTORS
330
1FF
330
200
102
}
330
4E
100
AcDbEntity
  8
0
  6
Continuous
 62
     2
100
AcDbLine
 10
84.26499577023833
 20
345.1452110924003
 30
0.0
 11
85.45778847240473
 21
345.1452110924003
 31
0.0
  0
LINE
  5
14A
102
{ACAD_REACTORS
330
1FF
330
200
102
}
330
4E
100
AcDbEntity
  8
0
  6
Continuous
 62
     2
100
AcDbLine
 10
81.83169865781784
 20
345.1452110924003
 30
0.0
 11
83.02449135998543
 21
345.1452110924003
 31
0.0
  0
LINE
  5
14B
102
{ACAD_REACTORS
330
20F
330
210
102
}
330
4E
100
AcDbEntity
  8
0
  6
Continuous
 62
     2
100
AcDbLine
 10
85.50565111137695
 20
350.3803131332011
 30
0.0
 11
85.50565111137695
 21
350.8601974869428
 31
0.0
  0
LINE
  5
14C
102
{ACAD_REACTORS
330
20F
330
210
102
}
330
4E
100
AcDbEntity
  8
0
  6
Continuous
 62
     2
100
AcDbLine
 10
86.84157893780463
 20
350.3803131332011
 30
0.0
 11
85.50565111137695
 21
350.3803131332011
 31
0.0
  0
LINE
  5
14D
102
{ACAD_REACTORS
330
20F
330
210
102
}
330
4E
100
AcDbEntity
  8
0
  6
Continuous
 62
     2
100
AcDbLine
 10
86.84157893780463
 20
349.6822995277588
 30
0.0
 11
86.84157893780463
 21
350.3803131332011
 31
0.0
  0
LINE
  5
14E
102
{ACAD_REACTORS
330
20F
330
210
102
}
330
4E
100
AcDbEntity
  8
0
  6
Continuous
 62
     2
100
AcDbLine
 10
85.50565111137695
 20
349.6822995277588
 30
0.0
 11
86.84157893780463
 21
349.6822995277588
 31
0.0
  0
LINE
  5
14F
102
{ACAD_REACTORS
330
1FD
330
1FE
102
}
330
4E
100
AcDbEntity
  8
0
  6
Continuous
 62
     2
100
AcDbLine
 10
82.02269642105003
 20
351.5582110923858
 30
0.0
 11
82.02269642105003
 21
348.5044015685746
 31
0.0
  0
LINE
  5
150
102
{ACAD_REACTORS
330
1FD
330
1FE
102
}
330
4E
100
AcDbEntity
  8
0
  6
Continuous
 62
     2
100
AcDbLine
 10
82.02269642105003
 20
348.5044015685746
 30
0.0
 11
80.82990371888363
 21
348.5044015685746
 31
0.0
  0
LINE
  5
151
102
{ACAD_REACTORS
330
1FD
330
1FE
102
}
330
4E
100
AcDbEntity
  8
0
  6
Continuous
 62
     2
100
AcDbLine
 10
80.82990371888363
 20
348.5044015685746
 30
0.0
 11
80.82990371888363
 21
349.6386736774184
 31
0.0
  0
LINE
  5
152
102
{ACAD_REACTORS
330
1FD
330
1FE
102
}
330
4E
100
AcDbEntity
  8
0
  6
Continuous
 62
     2
100
AcDbLine
 10
79.78024614097615
 20
348.5044015685746
 30
0.0
 11
78.58745343880955
 21
348.5044015685746
 31
0.0
  0
LINE
  5
153
102
{ACAD_REACTORS
330
1FD
330
1FE
102
}
330
4E
100
AcDbEntity
  8
0
  6
Continuous
 62
     2
100
AcDbLine
 10
78.58745343880955
 20
351.5582110923858
 30
0.0
 11
79.78024614097615
 21
351.5582110923858
 31
0.0
  0
LINE
  5
154
102
{ACAD_REACTORS
330
1FD
330
1FE
102
}
330
4E
100
AcDbEntity
  8
0
  6
Continuous
 62
     2
100
AcDbLine
 10
79.78024614097615
 20
351.5582110923858
 30
0.0
 11
79.78024614097615
 21
350.4893777590512
 31
0.0
  0
LINE
  5
155
102
{ACAD_REACTORS
330
1FD
330
1FE
102
}
330
4E
100
AcDbEntity
  8
0
  6
Continuous
 62
     2
100
AcDbLine
 10
79.78024614097615
 20
350.4893777590512
 30
0.0
 11
80.82990371888363
 21
350.4893777590512
 31
0.0
  0
LINE
  5
156
102
{ACAD_REACTORS
330
20B
330
20C
102
}
330
4E
100
AcDbEntity
  8
0
  6
Continuous
 62
     2
100
AcDbLine
 10
76.63127340725595
 20
350.8951052469457
 30
0.0
 11
76.94856846879784
 21
350.8951052469457
 31
0.0
  0
LINE
  5
157
102
{ACAD_REACTORS
330
20B
330
20C
102
}
330
4E
100
AcDbEntity
  8
0
  6
Continuous
 62
     2
100
AcDbLine
 10
76.63127340725595
 20
350.1893775976035
 30
0.0
 11
76.94856846879784
 21
350.1893775976035
 31
0.0
  0
LINE
  5
158
102
{ACAD_REACTORS
330
20B
330
20C
102
}
330
4E
100
AcDbEntity
  8
0
  6
Continuous
 62
     2
100
AcDbLine
 10
75.39076899700183
 20
351.5582110923858
 30
0.0
 11
75.39076899700183
 21
348.5044015685746
 31
0.0
  0
LINE
  5
159
102
{ACAD_REACTORS
330
20B
330
20C
102
}
330
4E
100
AcDbEntity
  8
0
  6
Continuous
 62
     2
100
AcDbLine
 10
75.39076899700183
 20
351.5582110923858
 30
0.0
 11
77.39004099503623
 21
351.5582110923858
 31
0.0
  0
LINE
  5
15A
102
{ACAD_REACTORS
330
20B
330
20C
102
}
330
4E
100
AcDbEntity
  8
0
  6
Continuous
 62
     2
100
AcDbLine
 10
76.63127340725595
 20
349.4474798097184
 30
0.0
 11
77.39004099503623
 21
349.4474798097184
 31
0.0
  0
LINE
  5
15B
102
{ACAD_REACTORS
330
211
330
212
102
}
330
4E
100
AcDbEntity
  8
0
  6
Continuous
 62
     2
100
AcDbLine
 10
69.29427296370514
 20
350.529938613751
 30
0.0
 11
69.29427296370514
 21
346.1734835710339
 31
0.0
  0
LINE
  5
15C
102
{ACAD_REACTORS
330
211
330
212
102
}
330
4E
100
AcDbEntity
  8
0
  6
Continuous
 62
     2
100
AcDbLine
 10
69.60998988678082
 20
350.8456555368272
 30
0.0
 11
71.08582314779045
 21
350.8456555368272
 31
0.0
  0
LINE
  5
15D
102
{ACAD_REACTORS
330
211
330
212
102
}
330
4E
100
AcDbEntity
  8
0
  6
Continuous
 62
     2
100
AcDbLine
 10
71.40154007086704
 20
349.9259139946905
 30
0.0
 11
71.40154007086704
 21
350.529938613751
 31
0.0
  0
LINE
  5
15E
102
{ACAD_REACTORS
330
211
330
212
102
}
330
4E
100
AcDbEntity
  8
0
  6
Continuous
 62
     2
100
AcDbLine
 10
71.40154007086704
 20
346.1734835710339
 30
0.0
 11
71.40154007086704
 21
347.7042545025655
 31
0.0
  0
LINE
  5
15F
102
{ACAD_REACTORS
330
211
330
212
102
}
330
4E
100
AcDbEntity
  8
0
  6
Continuous
 62
     2
100
AcDbLine
 10
74.48940730075114
 20
345.1452110924003
 30
0.0
 11
69.01609521003434
 21
345.1452110924003
 31
0.0
  0
LINE
  5
160
102
{ACAD_REACTORS
330
211
330
212
102
}
330
4E
100
AcDbEntity
  8
0
  6
Continuous
 62
     2
100
AcDbLine
 10
74.91365191613502
 20
351.1339664769838
 30
0.0
 11
74.91365191613502
 21
345.5694557077836
 31
0.0
  0
LINE
  5
161
102
{ACAD_REACTORS
330
211
330
212
102
}
330
4E
100
AcDbEntity
  8
0
  6
Continuous
 62
     2
100
AcDbLine
 10
69.01609521003434
 20
351.5582110923676
 30
0.0
 11
74.48940730075114
 21
351.5582110923676
 31
0.0
  0
LINE
  5
162
102
{ACAD_REACTORS
330
211
330
212
102
}
330
4E
100
AcDbEntity
  8
0
  6
Continuous
 62
     2
100
AcDbLine
 10
68.59185059465153
 20
351.1339664769838
 30
0.0
 11
68.59185059465153
 21
345.5694557077836
 31
0.0
  0
LINE
  5
163
102
{ACAD_REACTORS
330
211
330
212
102
}
330
4E
100
AcDbEntity
  8
0
  6
Continuous
 62
     2
100
AcDbLine
 10
71.08582314779045
 20
345.8577666479572
 30
0.0
 11
69.60998988678082
 21
345.8577666479572
 31
0.0
  0
LINE
  5
164
102
{ACAD_REACTORS
330
20B
330
20C
102
}
330
4E
100
AcDbEntity
  8
0
  6
Continuous
 62
     2
100
AcDbLine
 10
76.63127340725595
 20
348.5044015685746
 30
0.0
 11
76.63127340725595
 21
349.4474798097184
 31
0.0
  0
LINE
  5
165
102
{ACAD_REACTORS
330
20B
330
20C
102
}
330
4E
100
AcDbEntity
  8
0
  6
Continuous
 62
     2
100
AcDbLine
 10
75.39076899700183
 20
348.5044015685746
 30
0.0
 11
76.63127340725595
 21
348.5044015685746
 31
0.0
  0
LINE
  5
166
102
{ACAD_REACTORS
330
20B
330
20C
102
}
330
4E
100
AcDbEntity
  8
0
  6
Continuous
 62
     2
100
AcDbLine
 10
76.63127340725595
 20
350.1893775976035
 30
0.0
 11
76.63127340725595
 21
350.8951052469457
 31
0.0
  0
LINE
  5
167
102
{ACAD_REACTORS
330
1FD
330
1FE
102
}
330
4E
100
AcDbEntity
  8
0
  6
Continuous
 62
     2
100
AcDbLine
 10
78.58745343880955
 20
351.5582110923858
 30
0.0
 11
78.58745343880955
 21
348.5044015685746
 31
0.0
  0
LINE
  5
168
102
{ACAD_REACTORS
330
1FD
330
1FE
102
}
330
4E
100
AcDbEntity
  8
0
  6
Continuous
 62
     2
100
AcDbLine
 10
79.78024614097615
 20
349.6386736774184
 30
0.0
 11
79.78024614097615
 21
348.5044015685746
 31
0.0
  0
LINE
  5
169
102
{ACAD_REACTORS
330
1FD
330
1FE
102
}
330
4E
100
AcDbEntity
  8
0
  6
Continuous
 62
     2
100
AcDbLine
 10
80.82990371888363
 20
349.6386736774184
 30
0.0
 11
79.78024614097615
 21
349.6386736774184
 31
0.0
  0
LINE
  5
16A
102
{ACAD_REACTORS
330
1FD
330
1FE
102
}
330
4E
100
AcDbEntity
  8
0
  6
Continuous
 62
     2
100
AcDbLine
 10
80.82990371888363
 20
351.5582110923858
 30
0.0
 11
82.02269642105003
 21
351.5582110923858
 31
0.0
  0
LINE
  5
16B
102
{ACAD_REACTORS
330
1FD
330
1FE
102
}
330
4E
100
AcDbEntity
  8
0
  6
Continuous
 62
     2
100
AcDbLine
 10
80.82990371888363
 20
350.4893777590512
 30
0.0
 11
80.82990371888363
 21
351.5582110923858
 31
0.0
  0
LINE
  5
16C
102
{ACAD_REACTORS
330
20F
330
210
102
}
330
4E
100
AcDbEntity
  8
0
  6
Continuous
 62
     2
100
AcDbLine
 10
86.84157893780463
 20
350.8601974869428
 30
0.0
 11
86.84157893780463
 21
351.5582110923858
 31
0.0
  0
LINE
  5
16D
102
{ACAD_REACTORS
330
20F
330
210
102
}
330
4E
100
AcDbEntity
  8
0
  6
Continuous
 62
     2
100
AcDbLine
 10
83.69125921402363
 20
351.5582110923858
 30
0.0
 11
86.84157893780463
 21
351.5582110923858
 31
0.0
  0
LINE
  5
16E
102
{ACAD_REACTORS
330
20F
330
210
102
}
330
4E
100
AcDbEntity
  8
0
  6
Continuous
 62
     2
100
AcDbLine
 10
83.69125921402363
 20
348.5044015685746
 30
0.0
 11
86.84157893780463
 21
348.5044015685746
 31
0.0
  0
LINE
  5
16F
102
{ACAD_REACTORS
330
20F
330
210
102
}
330
4E
100
AcDbEntity
  8
0
  6
Continuous
 62
     2
100
AcDbLine
 10
86.84157893780463
 20
348.5044015685746
 30
0.0
 11
86.84157893780463
 21
349.2024151740171
 31
0.0
  0
LINE
  5
170
102
{ACAD_REACTORS
330
20F
330
210
102
}
330
4E
100
AcDbEntity
  8
0
  6
Continuous
 62
     2
100
AcDbLine
 10
86.84157893780463
 20
349.2024151740171
 30
0.0
 11
85.50565111137695
 21
349.2024151740171
 31
0.0
  0
LINE
  5
171
102
{ACAD_REACTORS
330
20F
330
210
102
}
330
4E
100
AcDbEntity
  8
0
  6
Continuous
 62
     2
100
AcDbLine
 10
85.50565111137695
 20
349.2024151740171
 30
0.0
 11
85.50565111137695
 21
349.6822995277588
 31
0.0
  0
LINE
  5
172
102
{ACAD_REACTORS
330
20F
330
210
102
}
330
4E
100
AcDbEntity
  8
0
  6
Continuous
 62
     2
100
AcDbLine
 10
85.50565111137695
 20
350.8601974869428
 30
0.0
 11
86.84157893780463
 21
350.8601974869428
 31
0.0
  0
LINE
  5
173
102
{ACAD_REACTORS
330
1FF
330
200
102
}
330
4E
100
AcDbEntity
  8
0
  6
Continuous
 62
     2
100
AcDbLine
 10
83.02449135998543
 20
345.1452110924003
 30
0.0
 11
83.02449135998543
 21
346.4539866026049
 31
0.0
  0
LINE
  5
174
102
{ACAD_REACTORS
330
1FF
330
200
102
}
330
4E
100
AcDbEntity
  8
0
  6
Continuous
 62
     2
100
AcDbLine
 10
83.02449135998543
 20
346.4539866026049
 30
0.0
 11
84.26499577023833
 21
345.1452110924003
 31
0.0
  0
LINE
  5
175
102
{ACAD_REACTORS
330
1FF
330
200
102
}
330
4E
100
AcDbEntity
  8
0
  6
Continuous
 62
     2
100
AcDbLine
 10
85.45778847240473
 20
345.1452110924003
 30
0.0
 11
85.45778847240473
 21
348.1990206162114
 31
0.0
  0
LINE
  5
176
102
{ACAD_REACTORS
330
1FF
330
200
102
}
330
4E
100
AcDbEntity
  8
0
  6
Continuous
 62
     2
100
AcDbLine
 10
85.45778847240473
 20
348.1990206162114
 30
0.0
 11
84.26499577023833
 21
348.1990206162114
 31
0.0
  0
LINE
  5
177
102
{ACAD_REACTORS
330
1FF
330
200
102
}
330
4E
100
AcDbEntity
  8
0
  6
Continuous
 62
     2
100
AcDbLine
 10
84.26499577023833
 20
348.1990206162114
 30
0.0
 11
84.26499577023833
 21
346.8902451060063
 31
0.0
  0
LINE
  5
178
102
{ACAD_REACTORS
330
1FF
330
200
102
}
330
4E
100
AcDbEntity
  8
0
  6
Continuous
 62
     2
100
AcDbLine
 10
84.26499577023833
 20
346.8902451060063
 30
0.0
 11
83.02449135998543
 21
348.1990206162114
 31
0.0
  0
LINE
  5
179
102
{ACAD_REACTORS
330
201
330
202
102
}
330
4E
100
AcDbEntity
  8
0
  6
Continuous
 62
     2
100
AcDbLine
 10
88.27293018040405
 20
349.8131770787793
 30
0.0
 11
89.51343459065805
 21
348.5044015685746
 31
0.0
  0
LINE
  5
17A
102
{ACAD_REACTORS
330
201
330
202
102
}
330
4E
100
AcDbEntity
  8
0
  6
Continuous
 62
     2
100
AcDbLine
 10
89.51343459065805
 20
348.5044015685746
 30
0.0
 11
90.70622729282465
 21
348.5044015685746
 31
0.0
  0
LINE
  5
17B
102
{ACAD_REACTORS
330
201
330
202
102
}
330
4E
100
AcDbEntity
  8
0
  6
Continuous
 62
     2
100
AcDbLine
 10
90.70622729282465
 20
348.5044015685746
 30
0.0
 11
90.70622729282465
 21
351.5582110923858
 31
0.0
  0
LINE
  5
17C
102
{ACAD_REACTORS
330
201
330
202
102
}
330
4E
100
AcDbEntity
  8
0
  6
Continuous
 62
     2
100
AcDbLine
 10
90.70622729282465
 20
351.5582110923858
 30
0.0
 11
89.51343459065805
 21
351.5582110923858
 31
0.0
  0
LINE
  5
17D
102
{ACAD_REACTORS
330
201
330
202
102
}
330
4E
100
AcDbEntity
  8
0
  6
Continuous
 62
     2
100
AcDbLine
 10
89.51343459065805
 20
350.2494355821806
 30
0.0
 11
88.27293018040405
 21
351.5582110923858
 31
0.0
  0
LINE
  5
17E
102
{ACAD_REACTORS
330
201
330
202
102
}
330
4E
100
AcDbEntity
  8
0
  6
Continuous
 62
     2
100
AcDbLine
 10
87.08013747823753
 20
348.5044015685746
 30
0.0
 11
88.27293018040405
 21
348.5044015685746
 31
0.0
  0
LINE
  5
17F
102
{ACAD_REACTORS
330
203
330
204
102
}
330
4E
100
AcDbEntity
  8
0
  6
Continuous
 62
     2
100
AcDbLine
 10
85.60092359666493
 20
348.1990206162114
 30
0.0
 11
85.60092359666493
 21
347.4137553100878
 31
0.0
  0
LINE
  5
180
102
{ACAD_REACTORS
330
203
330
204
102
}
330
4E
100
AcDbEntity
  8
0
  6
Continuous
 62
     2
100
AcDbLine
 10
86.41202263413953
 20
347.4137553100878
 30
0.0
 11
86.41202263413953
 21
345.1452110924003
 31
0.0
  0
LINE
  5
181
102
{ACAD_REACTORS
330
203
330
204
102
}
330
4E
100
AcDbEntity
  8
0
  6
Continuous
 62
     2
100
AcDbLine
 10
86.41202263413953
 20
345.1452110924003
 30
0.0
 11
87.60481533630605
 21
345.1452110924003
 31
0.0
  0
LINE
  5
182
102
{ACAD_REACTORS
330
205
330
206
102
}
330
4E
100
AcDbEntity
  8
0
  6
Continuous
 62
     2
100
AcDbLine
 10
90.55434182972553
 20
345.1452110924003
 30
0.0
 11
90.34286177624975
 21
345.6861716366182
 31
0.0
  0
LINE
  5
183
102
{ACAD_REACTORS
330
205
330
206
102
}
330
4E
100
AcDbEntity
  8
0
  6
Continuous
 62
     2
100
AcDbLine
 10
90.39689319303915
 20
348.1990206162114
 30
0.0
 11
91.79484623997945
 21
345.1452110924003
 31
0.0
  0
LINE
  5
184
102
{ACAD_REACTORS
330
205
330
206
102
}
330
4E
100
AcDbEntity
  8
0
  6
Continuous
 62
     2
100
AcDbLine
 10
89.15638878278645
 20
348.1990206162114
 30
0.0
 11
90.39689319303915
 21
348.1990206162114
 31
0.0
  0
LINE
  5
185
102
{ACAD_REACTORS
330
205
330
206
102
}
330
4E
100
AcDbEntity
  8
0
  6
Continuous
 62
     2
100
AcDbLine
 10
87.75843573584714
 20
345.1452110924003
 30
0.0
 11
88.99894014610013
 21
345.1452110924003
 31
0.0
  0
LINE
  5
186
102
{ACAD_REACTORS
330
205
330
206
102
}
330
4E
100
AcDbEntity
  8
0
  6
Continuous
 62
     2
100
AcDbLine
 10
89.47647575072094
 20
346.3667349019248
 30
0.0
 11
90.07680622510344
 21
346.3667349019248
 31
0.0
  0
LINE
  5
187
102
{ACAD_REACTORS
330
205
330
206
102
}
330
4E
100
AcDbEntity
  8
0
  6
Continuous
 62
     2
100
AcDbLine
 10
90.07680622510344
 20
346.3667349019248
 30
0.0
 11
89.77664098791334
 21
347.1345498679115
 31
0.0
  0
LINE
  5
188
102
{ACAD_REACTORS
330
207
330
208
102
}
330
4E
100
AcDbEntity
  8
0
  6
Continuous
 62
     2
100
AcDbLine
 10
92.18529024351145
 20
348.5044015685746
 30
0.0
 11
90.94478583325855
 21
348.5044015685746
 31
0.0
  0
LINE
  5
189
102
{ACAD_REACTORS
330
209
330
20A
102
}
330
4E
100
AcDbEntity
  8
0
  6
Continuous
 62
     2
100
AcDbLine
 10
93.70729373147654
 20
348.5044015685746
 30
0.0
 11
92.30456951372832
 21
348.5044015685746
 31
0.0
  0
LINE
  5
18A
102
{ACAD_REACTORS
330
209
330
20A
102
}
330
4E
100
AcDbEntity
  8
0
  6
Continuous
 62
     2
100
AcDbLine
 10
93.70729373147654
 20
348.5044015685746
 30
0.0
 11
94.40388466954224
 21
349.2921333538683
 31
0.0
  0
LINE
  5
18B
102
{ACAD_REACTORS
330
209
330
20A
102
}
330
4E
100
AcDbEntity
  8
0
  6
Continuous
 62
     2
100
AcDbLine
 10
95.00505219143503
 20
351.5582110923858
 30
0.0
 11
96.40777640918225
 21
351.5582110923858
 31
0.0
  0
LINE
  5
18C
102
{ACAD_REACTORS
330
209
330
20A
102
}
330
4E
100
AcDbEntity
  8
0
  6
Continuous
 62
     2
100
AcDbLine
 10
92.39999292990115
 20
351.5582110923858
 30
0.0
 11
93.70252256066863
 21
350.0852605623496
 31
0.0
  0
LINE
  5
18D
102
{ACAD_REACTORS
330
209
330
20A
102
}
330
4E
100
AcDbEntity
  8
0
  6
Continuous
 62
     2
100
AcDbLine
 10
92.30456951372832
 20
348.5044015685746
 30
0.0
 11
93.70252256066863
 21
350.0852605623496
 31
0.0
  0
LINE
  5
18E
102
{ACAD_REACTORS
330
213
330
214
102
}
330
4E
100
AcDbEntity
  8
0
  6
Continuous
 62
     2
100
AcDbLine
 10
94.16532612910825
 20
346.1922315005639
 30
0.0
 11
94.16532612910825
 21
345.3197144937606
 31
0.0
  0
LINE
  5
18F
102
{ACAD_REACTORS
330
213
330
214
102
}
330
4E
100
AcDbEntity
  8
0
  6
Continuous
 62
     2
100
AcDbLine
 10
93.39566878614684
 20
347.4137553100878
 30
0.0
 11
94.49930808571494
 21
347.4137553100878
 31
0.0
  0
LINE
  5
190
102
{ACAD_REACTORS
330
215
330
216
102
}
330
4E
100
AcDbEntity
  8
0
  6
Continuous
 62
     2
100
AcDbLine
 10
78.06262464985633
 20
346.1922315005644
 30
0.0
 11
78.06262464985633
 21
345.3197144937612
 31
0.0
  0
LINE
  5
191
102
{ACAD_REACTORS
330
215
330
216
102
}
330
4E
100
AcDbEntity
  8
0
  6
Continuous
 62
     2
100
AcDbLine
 10
78.06262464985633
 20
347.1520002080473
 30
0.0
 11
78.06262464985633
 21
348.0245172148506
 31
0.0
  0
LINE
  5
192
330
4E
100
AcDbEntity
  8
1
  6
Continuous
 62
     7
100
AcDbLine
 10
193.9000002348402
 20
346.351711092384
 30
0.0
 11
100.7551957080889
 21
346.351711092384
 31
0.0
  0
LINE
  5
193
330
4E
100
AcDbEntity
  8
1
  6
Continuous
 62
     6
100
AcDbLine
 10
-4.64480429191104
 20
337.851711092384
 30
0.0
 11
-49.59999976516104
 21
337.851711092384
 31
0.0
  0
LINE
  5
194
330
4E
100
AcDbEntity
  8
1
  6
Continuous
 62
     7
100
AcDbLine
 10
184.9815919531614
 20
363.351711092384
 30
0.0
 11
184.9815919531614
 21
354.851711092384
 31
0.0
  0
LINE
  5
195
330
4E
100
AcDbEntity
  8
1
  6
Continuous
 62
     7
100
AcDbLine
 10
158.4815919531618
 20
363.351711092384
 30
0.0
 11
158.4815919531618
 21
354.851711092384
 31
0.0
  0
LINE
  5
196
330
4E
100
AcDbEntity
  8
1
  6
Continuous
 62
     7
100
AcDbLine
 10
100.7551957080889
 20
354.851711092384
 30
0.0
 11
100.7551957080889
 21
363.351711092384
 31
0.0
  0
LINE
  5
197
330
4E
100
AcDbEntity
  8
1
  6
Continuous
 62
     7
100
AcDbLine
 10
64.35519570808893
 20
354.851711092384
 30
0.0
 11
64.35519570808893
 21
363.351711092384
 31
0.0
  0
LINE
  5
198
330
4E
100
AcDbEntity
  8
1
  6
Continuous
 62
     6
100
AcDbLine
 10
100.7551957080889
 20
354.851711092384
 30
0.0
 11
193.9000002348406
 21
354.851711092384
 31
0.0
  0
LINE
  5
199
330
4E
100
AcDbEntity
  8
1
  6
Continuous
 62
     7
100
AcDbLine
 10
128.6551957080889
 20
346.3517110923839
 30
0.0
 11
128.6551957080889
 21
354.851711092384
 31
0.0
  0
LINE
  5
19A
330
4E
100
AcDbEntity
  8
1
  6
PHANTOM
 62
     2
100
AcDbLine
 10
79.84185059465153
 20
358.9767110923839
 30
0.0
 11
74.34185059465153
 21
358.9767110923839
 31
0.0
  0
LINE
  5
19B
330
4E
100
AcDbEntity
  8
1
  6
PHANTOM
 62
     2
100
AcDbLine
 10
77.09185059465153
 20
361.7267110923839
 30
0.0
 11
77.09185059465153
 21
356.2267110923839
 31
0.0
  0
LINE
  5
19C
330
4E
100
AcDbEntity
  8
1
  6
DOT_CENTER
 62
     2
100
AcDbLine
 10
68.34185059465153
 20
358.9767110923839
 30
0.0
 11
73.84185059465153
 21
358.9767110923839
 31
0.0
  0
ARC
  5
19D
102
{ACAD_REACTORS
330
215
330
216
102
}
330
4E
100
AcDbEntity
  8
0
  6
Continuous
 62
     2
100
AcDbCircle
 10
76.72669673273853
 20
343.3594349090497
 30
0.0
 40
4.852596863498095
100
AcDbArc
 50
74.02000874164747
 51
84.84185523037509
  0
ARC
  5
19E
102
{ACAD_REACTORS
330
215
330
216
102
}
330
4E
100
AcDbEntity
  8
0
  6
Continuous
 62
     2
100
AcDbCircle
 10
77.30273734149225
 20
346.515195264934
 30
0.0
 40
0.9059297849853228
100
AcDbArc
 50
71.55192388185348
 51
113.372277888129
  0
ARC
  5
19F
102
{ACAD_REACTORS
330
215
330
216
102
}
330
4E
100
AcDbEntity
  8
0
  6
Continuous
 62
     2
100
AcDbCircle
 10
77.14629730879022
 20
346.4670444249671
 30
0.0
 40
0.5115800601948034
100
AcDbArc
 50
208.5214732576956
 51
246.6277221118274
  0
ARC
  5
1A0
102
{ACAD_REACTORS
330
215
330
216
102
}
330
4E
100
AcDbEntity
  8
0
  6
Continuous
 62
     2
100
AcDbCircle
 10
77.30273734149225
 20
346.8290364436771
 30
0.0
 40
0.9059297849849192
100
AcDbArc
 50
246.627722111871
 51
288.4480761181579
  0
ARC
  5
1A1
102
{ACAD_REACTORS
330
215
330
216
102
}
330
4E
100
AcDbEntity
  8
0
  6
Continuous
 62
     2
100
AcDbCircle
 10
76.88456960783145
 20
348.0825822197143
 30
0.0
 40
2.227384008972764
100
AcDbArc
 50
288.4480761181326
 51
301.9309089499589
  0
ARC
  5
1A2
102
{ACAD_REACTORS
330
211
330
212
102
}
330
4E
100
AcDbEntity
  8
0
  6
Continuous
 62
     2
100
AcDbCircle
 10
71.65949587522465
 20
348.8150842486283
 30
0.0
 40
0.9118481501444847
100
AcDbArc
 50
295.3740086781757
 51
64.62599132180748
  0
ARC
  5
1A3
102
{ACAD_REACTORS
330
211
330
212
102
}
330
4E
100
AcDbEntity
  8
0
  6
Continuous
 62
     2
100
AcDbCircle
 10
72.18553857331253
 20
350.5297611371029
 30
0.0
 40
0.3157169230760142
100
AcDbArc
 50
90.18896704254595
 51
180.0
  0
ARC
  5
1A4
102
{ACAD_REACTORS
330
213
330
214
102
}
330
4E
100
AcDbEntity
  8
0
  6
Continuous
 62
     2
100
AcDbCircle
 10
93.39566878614684
 20
346.4592323032617
 30
0.0
 40
0.9545230068261503
100
AcDbArc
 50
90.0
 51
109.3371432194309
  0
ARC
  5
1A5
102
{ACAD_REACTORS
330
213
330
214
102
}
330
4E
100
AcDbEntity
  8
0
  6
Continuous
 62
     2
100
AcDbCircle
 10
93.62635604612453
 20
346.6721158543056
 30
0.0
 40
0.9410597353348789
100
AcDbArc
 50
151.478526742364
 51
208.5214732576695
  0
ARC
  5
1A6
102
{ACAD_REACTORS
330
213
330
214
102
}
330
4E
100
AcDbEntity
  8
0
  6
Continuous
 62
     2
100
AcDbCircle
 10
93.40543882074624
 20
346.8290364436771
 30
0.0
 40
0.9059297849852801
100
AcDbArc
 50
246.6277221118183
 51
288.4480761180806
  0
ARC
  5
1A7
102
{ACAD_REACTORS
330
213
330
214
102
}
330
4E
100
AcDbEntity
  8
0
  6
Continuous
 62
     2
100
AcDbCircle
 10
92.98727108708434
 20
348.0825822197137
 30
0.0
 40
2.227384008972773
100
AcDbArc
 50
288.4480761181333
 51
301.9309089499394
  0
ARC
  5
1A8
102
{ACAD_REACTORS
330
213
330
214
102
}
330
4E
100
AcDbEntity
  8
0
  6
Continuous
 62
     2
100
AcDbCircle
 10
92.82939821199153
 20
349.984796799562
 30
0.0
 40
4.852596863498825
100
AcDbArc
 50
275.1581447696364
 51
285.9799912583388
  0
ARC
  5
1A9
102
{ACAD_REACTORS
330
213
330
214
102
}
330
4E
100
AcDbEntity
  8
0
  6
Continuous
 62
     2
100
AcDbCircle
 10
93.11825430672735
 20
346.7849062163404
 30
0.0
 40
1.639695123940448
100
AcDbArc
 50
195.0618917771012
 51
275.1581447696762
  0
ARC
  5
1AA
102
{ACAD_REACTORS
330
20B
330
20C
102
}
330
4E
100
AcDbEntity
  8
0
  6
Continuous
 62
     2
100
AcDbCircle
 10
77.39004099503623
 20
350.5028454510521
 30
0.0
 40
1.055365641333708
100
AcDbArc
 50
270.0
 51
90.0
  0
ARC
  5
1AB
102
{ACAD_REACTORS
330
211
330
212
102
}
330
4E
100
AcDbEntity
  8
0
  6
Continuous
 62
     2
100
AcDbCircle
 10
69.60998988678082
 20
346.1734835710339
 30
0.0
 40
0.3157169230756836
100
AcDbArc
 50
180.0
 51
270.0
  0
ARC
  5
1AC
102
{ACAD_REACTORS
330
211
330
212
102
}
330
4E
100
AcDbEntity
  8
0
  6
Continuous
 62
     2
100
AcDbCircle
 10
71.08582314779045
 20
350.529938613751
 30
0.0
 40
0.315716923076593
100
AcDbArc
 50
0.0
 51
90.0
  0
ARC
  5
1AD
102
{ACAD_REACTORS
330
211
330
212
102
}
330
4E
100
AcDbEntity
  8
0
  6
Continuous
 62
     2
100
AcDbCircle
 10
71.08582314779045
 20
349.9259139946905
 30
0.0
 40
0.3157169230761717
100
AcDbArc
 50
295.1944106485354
 51
0.0
  0
ARC
  5
1AE
102
{ACAD_REACTORS
330
211
330
212
102
}
330
4E
100
AcDbEntity
  8
0
  6
Continuous
 62
     2
100
AcDbCircle
 10
71.08582314779045
 20
346.1734835710339
 30
0.0
 40
0.3157169230767067
100
AcDbArc
 50
270.0
 51
0.0
  0
ARC
  5
1AF
102
{ACAD_REACTORS
330
211
330
212
102
}
330
4E
100
AcDbEntity
  8
0
  6
Continuous
 62
     2
100
AcDbCircle
 10
69.01609521003434
 20
351.1339664769838
 30
0.0
 40
0.4242446153838273
100
AcDbArc
 50
90.0
 51
180.0
  0
ARC
  5
1B0
102
{ACAD_REACTORS
330
211
330
212
102
}
330
4E
100
AcDbEntity
  8
0
  6
Continuous
 62
     2
100
AcDbCircle
 10
74.48940730075114
 20
351.1339664769838
 30
0.0
 40
0.4242446153838841
100
AcDbArc
 50
0.0
 51
90.0
  0
ARC
  5
1B1
102
{ACAD_REACTORS
330
211
330
212
102
}
330
4E
100
AcDbEntity
  8
0
  6
Continuous
 62
     2
100
AcDbCircle
 10
74.48940730075114
 20
345.5694557077836
 30
0.0
 40
0.4242446153833157
100
AcDbArc
 50
270.0
 51
0.0
  0
ARC
  5
1B2
102
{ACAD_REACTORS
330
20F
330
210
102
}
330
4E
100
AcDbEntity
  8
0
  6
Continuous
 62
     2
100
AcDbCircle
 10
83.70779118784264
 20
350.0313063304799
 30
0.0
 40
0.7717997786796023
100
AcDbArc
 50
321.8795802028471
 51
38.12041979716289
  0
ARC
  5
1B3
102
{ACAD_REACTORS
330
20F
330
210
102
}
330
4E
100
AcDbEntity
  8
0
  6
Continuous
 62
     2
100
AcDbCircle
 10
83.90753122418883
 20
349.8745751523595
 30
0.0
 40
0.5179085730134372
100
AcDbArc
 50
218.1204197971511
 51
321.8795802028566
  0
ARC
  5
1B4
102
{ACAD_REACTORS
330
20D
330
20E
102
}
330
4E
100
AcDbEntity
  8
0
  6
Continuous
 62
     2
100
AcDbCircle
 10
80.22752363522864
 20
346.6721158543056
 30
0.0
 40
1.458034083652028
100
AcDbArc
 50
297.5481481757005
 51
62.45185182429842
  0
ARC
  5
1B5
102
{ACAD_REACTORS
330
20D
330
20E
102
}
330
4E
100
AcDbEntity
  8
0
  6
Continuous
 62
     2
100
AcDbCircle
 10
79.66564385156204
 20
346.6721158543056
 30
0.0
 40
1.458034083651465
100
AcDbArc
 50
117.548148175663
 51
242.451851824338
  0
ARC
  5
1B6
102
{ACAD_REACTORS
330
20D
330
20E
102
}
330
4E
100
AcDbEntity
  8
0
  6
Continuous
 62
     2
100
AcDbCircle
 10
79.94658374339534
 20
346.1335408440028
 30
0.0
 40
2.065479772208543
100
AcDbArc
 50
62.451851824306
 51
117.5481481756667
  0
ARC
  5
1B7
102
{ACAD_REACTORS
330
20D
330
20E
102
}
330
4E
100
AcDbEntity
  8
0
  6
Continuous
 62
     2
100
AcDbCircle
 10
79.94658374339534
 20
347.2106908646089
 30
0.0
 40
2.065479772208534
100
AcDbArc
 50
242.4518518243405
 51
297.5481481756867
  0
ARC
  5
1B8
102
{ACAD_REACTORS
330
20F
330
210
102
}
330
4E
100
AcDbEntity
  8
0
  6
Continuous
 62
     2
100
AcDbCircle
 10
84.10727126053513
 20
350.0313063304799
 30
0.0
 40
0.7717997786797075
100
AcDbArc
 50
141.8795802028371
 51
218.1204197971529
  0
ARC
  5
1B9
102
{ACAD_REACTORS
330
20F
330
210
102
}
330
4E
100
AcDbEntity
  8
0
  6
Continuous
 62
     2
100
AcDbCircle
 10
83.90753122418883
 20
350.1880375086004
 30
0.0
 40
0.5179085730135266
100
AcDbArc
 50
38.12041979714334
 51
141.8795802028489
  0
ARC
  5
1BA
102
{ACAD_REACTORS
330
211
330
212
102
}
330
4E
100
AcDbEntity
  8
0
  6
Continuous
 62
     2
100
AcDbCircle
 10
69.01609521003434
 20
345.5694557077836
 30
0.0
 40
0.4242446153828041
100
AcDbArc
 50
180.0
 51
270.0
  0
ARC
  5
1BB
102
{ACAD_REACTORS
330
211
330
212
102
}
330
4E
100
AcDbEntity
  8
0
  6
Continuous
 62
     2
100
AcDbCircle
 10
71.08582314779045
 20
347.7042545025655
 30
0.0
 40
0.315716923076593
100
AcDbArc
 50
0.0
 51
64.80558935146027
  0
ARC
  5
1BC
102
{ACAD_REACTORS
330
211
330
212
102
}
330
4E
100
AcDbEntity
  8
0
  6
Continuous
 62
     2
100
AcDbCircle
 10
71.60840759536543
 20
348.8150842486283
 30
0.0
 40
0.9118975235575889
100
AcDbArc
 50
115.194410648529
 51
244.8055893514878
  0
ARC
  5
1BD
102
{ACAD_REACTORS
330
211
330
212
102
}
330
4E
100
AcDbEntity
  8
0
  6
Continuous
 62
     2
100
AcDbCircle
 10
69.60998988678082
 20
350.529938613751
 30
0.0
 40
0.3157169230761951
100
AcDbArc
 50
90.0
 51
180.0
  0
ARC
  5
1BE
102
{ACAD_REACTORS
330
20B
330
20C
102
}
330
4E
100
AcDbEntity
  8
0
  6
Continuous
 62
     2
100
AcDbCircle
 10
76.94856846879784
 20
350.5422414222746
 30
0.0
 40
0.3528638246711466
100
AcDbArc
 50
270.0
 51
90.0
  0
ARC
  5
1BF
102
{ACAD_REACTORS
330
20F
330
210
102
}
330
4E
100
AcDbEntity
  8
0
  6
Continuous
 62
     2
100
AcDbCircle
 10
83.69125921402363
 20
350.0313063304799
 30
0.0
 40
1.526904761905939
100
AcDbArc
 50
90.0
 51
270.0
  0
ARC
  5
1C0
102
{ACAD_REACTORS
330
213
330
214
102
}
330
4E
100
AcDbEntity
  8
0
  6
Continuous
 62
     2
100
AcDbCircle
 10
93.11825430672735
 20
346.5593254922707
 30
0.0
 40
1.639695123940157
100
AcDbArc
 50
90.0
 51
164.9381082228969
  0
ARC
  5
1C1
102
{ACAD_REACTORS
330
213
330
214
102
}
330
4E
100
AcDbEntity
  8
0
  6
Continuous
 62
     2
100
AcDbCircle
 10
92.69912646326574
 20
346.6721158543056
 30
0.0
 40
1.205656168392988
100
AcDbArc
 50
164.9381082229054
 51
195.0618917770972
  0
ARC
  5
1C2
102
{ACAD_REACTORS
330
213
330
214
102
}
330
4E
100
AcDbEntity
  8
0
  6
Continuous
 62
     2
100
AcDbCircle
 10
93.24899878804314
 20
346.4670444249671
 30
0.0
 40
0.5115800601960215
100
AcDbArc
 50
208.5214732576866
 51
246.6277221118449
  0
ARC
  5
1C3
102
{ACAD_REACTORS
330
213
330
214
102
}
330
4E
100
AcDbEntity
  8
0
  6
Continuous
 62
     2
100
AcDbCircle
 10
93.24899878804314
 20
346.8771872836446
 30
0.0
 40
0.5115800601944143
100
AcDbArc
 50
109.3371432194853
 51
151.4785267424253
  0
ARC
  5
1C4
102
{ACAD_REACTORS
330
211
330
212
102
}
330
4E
100
AcDbEntity
  8
0
  6
Continuous
 62
     2
100
AcDbCircle
 10
72.18553857331253
 20
347.1240912419648
 30
0.0
 40
0.315716923076792
100
AcDbArc
 50
180.0
 51
269.8110329574541
  0
ARC
  5
1C5
102
{ACAD_REACTORS
330
211
330
212
102
}
330
4E
100
AcDbEntity
  8
0
  6
Continuous
 62
     2
100
AcDbCircle
 10
72.19115470862255
 20
348.8269261895338
 30
0.0
 40
2.018561131933266
100
AcDbArc
 50
269.8110329575858
 51
90.18896704241416
  0
ARC
  5
1C6
102
{ACAD_REACTORS
330
211
330
212
102
}
330
4E
100
AcDbEntity
  8
0
  6
Continuous
 62
     2
100
AcDbCircle
 10
72.18553857331253
 20
349.9242258485961
 30
0.0
 40
0.315716923076792
100
AcDbArc
 50
180.0
 51
244.6259913216482
  0
ARC
  5
1C7
102
{ACAD_REACTORS
330
211
330
212
102
}
330
4E
100
AcDbEntity
  8
0
  6
Continuous
 62
     2
100
AcDbCircle
 10
72.18553857331253
 20
347.7059426486599
 30
0.0
 40
0.3157169230764815
100
AcDbArc
 50
115.3740086783563
 51
180.0
  0
ARC
  5
1C8
102
{ACAD_REACTORS
330
215
330
216
102
}
330
4E
100
AcDbEntity
  8
0
  6
Continuous
 62
     2
100
AcDbCircle
 10
77.01555282747444
 20
346.5593254922707
 30
0.0
 40
1.639695123940507
100
AcDbArc
 50
84.84185523036236
 51
164.9381082228884
  0
ARC
  5
1C9
102
{ACAD_REACTORS
330
215
330
216
102
}
330
4E
100
AcDbEntity
  8
0
  6
Continuous
 62
     2
100
AcDbCircle
 10
76.59642498401163
 20
346.6721158543056
 30
0.0
 40
1.205656168390929
100
AcDbArc
 50
164.9381082228791
 51
195.0618917770948
  0
ARC
  5
1CA
102
{ACAD_REACTORS
330
215
330
216
102
}
330
4E
100
AcDbEntity
  8
0
  6
Continuous
 62
     2
100
AcDbCircle
 10
77.01555282747444
 20
346.7849062163404
 30
0.0
 40
1.63969512393938
100
AcDbArc
 50
195.0618917770886
 51
275.1581447696396
  0
ARC
  5
1CB
102
{ACAD_REACTORS
330
215
330
216
102
}
330
4E
100
AcDbEntity
  8
0
  6
Continuous
 62
     2
100
AcDbCircle
 10
76.72669673273853
 20
349.984796799562
 30
0.0
 40
4.85259686349811
100
AcDbArc
 50
275.158144769625
 51
285.9799912583529
  0
ARC
  5
1CC
102
{ACAD_REACTORS
330
215
330
216
102
}
330
4E
100
AcDbEntity
  8
0
  6
Continuous
 62
     2
100
AcDbCircle
 10
77.52365456687053
 20
346.6721158543056
 30
0.0
 40
0.9410597353332545
100
AcDbArc
 50
151.4785267422669
 51
208.5214732577057
  0
ARC
  5
1CD
102
{ACAD_REACTORS
330
215
330
216
102
}
330
4E
100
AcDbEntity
  8
0
  6
Continuous
 62
     2
100
AcDbCircle
 10
77.14629730879022
 20
346.8771872836446
 30
0.0
 40
0.5115800601948517
100
AcDbArc
 50
113.3722778882004
 51
151.4785267423044
  0
ARC
  5
1CE
102
{ACAD_REACTORS
330
215
330
216
102
}
330
4E
100
AcDbEntity
  8
0
  6
Continuous
 62
     2
100
AcDbCircle
 10
76.88456960783145
 20
345.2616494888974
 30
0.0
 40
2.227384008973501
100
AcDbArc
 50
58.06909105004111
 51
71.55192388186745
  0
ARC
  5
1CF
102
{ACAD_REACTORS
330
20D
330
20E
102
}
330
4E
100
AcDbEntity
  8
0
  6
Continuous
 62
     2
100
AcDbCircle
 10
79.94658374339534
 20
346.8288470324261
 30
0.0
 40
0.5179085730132998
100
AcDbArc
 50
38.12041979714704
 51
141.8795802028588
  0
ARC
  5
1D0
102
{ACAD_REACTORS
330
20D
330
20E
102
}
330
4E
100
AcDbEntity
  8
0
  6
Continuous
 62
     2
100
AcDbCircle
 10
80.14632377974144
 20
346.6721158543056
 30
0.0
 40
0.7717997786794457
100
AcDbArc
 50
141.879580202838
 51
218.120419797172
  0
ARC
  5
1D1
102
{ACAD_REACTORS
330
20D
330
20E
102
}
330
4E
100
AcDbEntity
  8
0
  6
Continuous
 62
     2
100
AcDbCircle
 10
79.94658374339534
 20
346.5153846761856
 30
0.0
 40
0.5179085730137529
100
AcDbArc
 50
218.1204197971956
 51
321.8795802027985
  0
ARC
  5
1D2
102
{ACAD_REACTORS
330
20D
330
20E
102
}
330
4E
100
AcDbEntity
  8
0
  6
Continuous
 62
     2
100
AcDbCircle
 10
79.74684370704892
 20
346.6721158543056
 30
0.0
 40
0.7717997786797298
100
AcDbArc
 50
321.8795802028384
 51
38.12041979715163
  0
CIRCLE
  5
1D3
330
4E
100
AcDbEntity
  8
1
  6
Continuous
 62
     2
100
AcDbCircle
 10
77.09185059465153
 20
358.9767110923839
 30
0.0
 40
2.5
  0
CIRCLE
  5
1D4
330
4E
100
AcDbEntity
  8
1
  6
Continuous
 62
     2
100
AcDbCircle
 10
77.09185059465153
 20
358.9767110923839
 30
0.0
 40
1.249999999999915
  0
CIRCLE
  5
1D5
102
{ACAD_REACTORS
330
211
330
212
102
}
330
4E
100
AcDbEntity
  8
0
  6
Continuous
 62
     2
100
AcDbCircle
 10
71.63568086055184
 20
348.8150842486283
 30
0.0
 40
0.4709789327785074
  0
MTEXT
  5
1D6
330
4E
100
AcDbEntity
  8
1
 62
     3
100
AcDbMText
 10
-93.09493197908927
 20
524.6430192476828
 30
0.0
 40
1.8
 41
0.0
 71
     7
 72
     1
  3
Weitergabe sowie Vervielf\U+00e4ltigung dieses Dokuments, Verwertung und \PMitteilung seines Inhalts sind verboten, soweit nicht ausdr\U+00fccklich gestattet. \PZuwiderhandlungen verpflichten zu Schadenersatz. Alle Rechte f\U+00fcr den Fall\Pder Pat
  1
ent-, Gebrauchsmuster- oder Designeintragung vorbehalten.
  7
CONVERTER_11
 73
     1
 44
0.99639855942377
  0
MTEXT
  5
1D7
330
4E
100
AcDbEntity
  8
1
 62
     3
100
AcDbMText
 10
89.75817785969883
 20
524.6430192476828
 30
0.0
 40
1.8
 41
0.0
 71
     7
 72
     1
  3
Transfer or duplication of this document as well as the utilisation or\Pcommunication of its content are not permitted unless express consent\Pis granted. Violations give rise to claims for damages. All rights reserved\Pin case of patent, utility mo
  1
del or design patent registrations.
  7
CONVERTER_11
 73
     1
 44
0.99639855942377
  0
TEXT
  5
1D8
330
4E
100
AcDbEntity
  8
1
 62
     2
100
AcDbText
 10
83.55519570808875
 20
339.0926938773924
 30
0.0
 40
1.8
  1
of
 41
0.9
  7
CONVERTER_11
100
AcDbText
  0
TEXT
  5
1D9
330
4E
100
AcDbEntity
  8
1
 62
     2
100
AcDbText
 10
65.35519570808893
 20
339.0926938773923
 30
0.0
 40
1.8
  1
page
 41
0.9
  7
CONVERTER_11
100
AcDbText
  0
TEXT
  5
1DA
330
4E
100
AcDbEntity
  8
1
 62
     2
100
AcDbText
 10
74.00146067843093
 20
339.052462438582
 30
0.0
 40
1.8
  1
1
 41
0.9
  7
CONVERTER_11
100
AcDbText
  0
TEXT
  5
1DB
330
4E
100
AcDbEntity
  8
1
 62
     2
100
AcDbText
 10
88.79050451790243
 20
339.1017110923839
 30
0.0
 40
1.8
  1
1
 41
0.9
  7
CONVERTER_11
100
AcDbText
  0
MTEXT
  5
1DD
330
4E
100
AcDbEntity
  8
1
 62
     7
100
AcDbMText
 10
147.3275979714644
 20
341.1017110923842
 30
0.0
 40
3.0
 41
0.0
 71
     5
 72
     1
  1
PT 2-TELE-ST
  7
CONVERTER_12
 73
     1
 44
1.20048019207683
  0
MTEXT
  5
1DE
330
4E
100
AcDbEntity
  8
1
 62
     2
100
AcDbMText
 10
101.7551957080889
 20
345.351711092384
 30
0.0
 40
1.8
 41
0.0
 71
     1
 72
     1
  1
description
  7
CONVERTER_11
 73
     1
 44
1.20048019207683
  0
MTEXT
  5
1DF
330
4E
100
AcDbEntity
  8
1
 62
     3
100
AcDbMText
 10
90.55519570808883
 20
358.976711092384
 30
0.0
 40
2.5
 41
0.0
 71
     5
 72
     1
  1
DIN A4
  7
CONVERTER_11
 73
     1
 44
1.20048019207683
  0
MTEXT
  5
1E0
330
4E
100
AcDbEntity
  8
1
 62
     7
100
AcDbMText
 10
-95.59999976516013
 20
360.351711092384
 30
0.0
 40
3.5
 41
0.0
 71
     5
 72
     1
  1
D
  7
CONVERTER_11
 73
     1
 44
1.20048019207683
  0
MTEXT
  5
1E1
330
4E
100
AcDbEntity
  8
1
 62
     7
100
AcDbMText
 10
-95.59999976516013
 20
412.851711092384
 30
0.0
 40
3.5
 41
0.0
 71
     5
 72
     1
  1
C
  7
CONVERTER_11
 73
     1
 44
1.20048019207683
  0
MTEXT
  5
1E2
330
4E
100
AcDbEntity
  8
1
 62
     7
100
AcDbMText
 10
-95.59999976516013
 20
462.851711092384
 30
0.0
 40
3.5
 41
0.0
 71
     5
 72
     1
  1
B
  7
CONVERTER_11
 73
     1
 44
1.20048019207683
  0
MTEXT
  5
1E3
330
4E
100
AcDbEntity
  8
1
 62
     7
100
AcDbMText
 10
-95.59999976516013
 20
515.351711092384
 30
0.0
 40
3.5
 41
0.0
 71
     5
 72
     1
  1
A
  7
CONVERTER_11
 73
     1
 44
1.20048019207683
  0
MTEXT
  5
1E4
330
4E
100
AcDbEntity
  8
1
 62
     7
100
AcDbMText
 10
174.6500002348381
 20
335.3517110923839
 30
0.0
 40
3.5
 41
0.0
 71
     5
 72
     1
  1
6
  7
CONVERTER_11
 73
     1
 44
1.20048019207683
  0
MTEXT
  5
1E5
330
4E
100
AcDbEntity
  8
1
 62
     7
100
AcDbMText
 10
125.4000002348389
 20
335.3517110923839
 30
0.0
 40
3.5
 41
0.0
 71
     5
 72
     1
  1
5
  7
CONVERTER_11
 73
     1
 44
1.20048019207683
  0
MTEXT
  5
1E6
330
4E
100
AcDbEntity
  8
1
 62
     7
100
AcDbMText
 10
75.40000023483884
 20
335.3517110923839
 30
0.0
 40
3.5
 41
0.0
 71
     5
 72
     1
  1
4
  7
CONVERTER_11
 73
     1
 44
1.20048019207683
  0
MTEXT
  5
1E7
330
4E
100
AcDbEntity
  8
1
 62
     7
100
AcDbMText
 10
25.40000023483896
 20
335.3517110923839
 30
0.0
 40
3.5
 41
0.0
 71
     5
 72
     1
  1
3
  7
CONVERTER_11
 73
     1
 44
1.20048019207683
  0
MTEXT
  5
1E8
330
4E
100
AcDbEntity
  8
1
 62
     7
100
AcDbMText
 10
-24.59999976516104
 20
335.3517110923839
 30
0.0
 40
3.5
 41
0.0
 71
     5
 72
     1
  1
2
  7
CONVERTER_11
 73
     1
 44
1.20048019207683
  0
MTEXT
  5
1E9
330
4E
100
AcDbEntity
  8
1
 62
     7
100
AcDbMText
 10
-73.84999976516065
 20
335.3517110923839
 30
0.0
 40
3.5
 41
0.0
 71
     5
 72
     1
  1
1
  7
CONVERTER_11
 73
     1
 44
1.20048019207683
  0
MTEXT
  5
1EA
330
4E
100
AcDbEntity
  8
1
 62
     7
100
AcDbMText
 10
196.4000002348379
 20
360.351711092384
 30
0.0
 40
3.5
 41
0.0
 71
     5
 72
     1
  1
D
  7
CONVERTER_11
 73
     1
 44
1.20048019207683
  0
MTEXT
  5
1EB
330
4E
100
AcDbEntity
  8
1
 62
     7
100
AcDbMText
 10
196.4000002348379
 20
462.8517110923859
 30
0.0
 40
3.5
 41
0.0
 71
     5
 72
     1
  1
B
  7
CONVERTER_11
 73
     1
 44
1.20048019207683
  0
MTEXT
  5
1EC
330
4E
100
AcDbEntity
  8
1
 62
     7
100
AcDbMText
 10
196.4000002348379
 20
515.351711092384
 30
0.0
 40
3.5
 41
0.0
 71
     5
 72
     1
  1
A
  7
CONVERTER_11
 73
     1
 44
1.20048019207683
  0
MTEXT
  5
1ED
330
4E
100
AcDbEntity
  8
1
 62
     7
100
AcDbMText
 10
196.4000002348379
 20
412.8517110923859
 30
0.0
 40
3.5
 41
0.0
 71
     5
 72
     1
  1
C
  7
CONVERTER_11
 73
     1
 44
1.20048019207683
  0
MTEXT
  5
1EE
330
4E
100
AcDbEntity
  8
1
 62
     2
100
AcDbMText
 10
29.91718098304142
 20
350.6017110923839
 30
0.0
 40
2.0
 41
0.0
 71
     5
 72
     1
  1
General Information\P- Simplified representation\P- Document excluded from change process\P- Linear dimensions [mm]
  7
CONVERTER_11
 73
     1
 44
1.20048019207683
  0
TEXT
  5
1EF
330
4E
100
AcDbEntity
  8
1
 62
     7
100
AcDbText
 10
102.2551957080887
 20
347.6517110923839
 30
0.0
 40
2.5
  1
2838733
 41
0.81
  7
CONVERTER_12
100
AcDbText
  0
MTEXT
  5
1F0
330
4E
100
AcDbEntity
  8
1
 62
     2
100
AcDbMText
 10
101.8551957080889
 20
353.851711092384
 30
0.0
 40
1.8
 41
0.0
 71
     1
 72
     1
  1
ident.-No.
  7
CONVERTER_11
 73
     1
 44
1.20048019207683
  0
MTEXT
  5
1F1
330
4E
100
AcDbEntity
  8
1
 62
     2
100
AcDbMText
 10
186.0815919531617
 20
362.351711092384
 30
0.0
 40
1.8
 41
0.0
 71
     1
 72
     1
  1
scale
  7
CONVERTER_11
 73
     1
 44
1.20048019207683
  0
MTEXT
  5
1F3
330
4E
100
AcDbEntity
  8
1
 62
     3
100
AcDbMText
 10
189.4407960940013
 20
356.1517110923841
 30
0.0
 40
2.5
 41
0.0
 71
     8
 72
     1
  1
1:1
  7
CONVERTER_13
 73
     1
 44
1.32052821128451
  0
TEXT
  5
1F4
330
4E
100
AcDbEntity
  8
1
 62
     7
100
AcDbText
 10
101.8551957080889
 20
356.1517110923839
 30
0.0
 40
2.5
  1
00321948
 41
0.81
  7
CONVERTER_12
100
AcDbText
  0
MTEXT
  5
1F6
330
4E
100
AcDbEntity
  8
1
 62
     2
100
AcDbMText
 10
101.8551957080889
 20
362.351711092384
 30
0.0
 40
1.8
 41
0.0
 71
     1
 72
     1
  1
document-No. / RI
  7
CONVERTER_14
 73
     1
 44
1.32052821128451
  0
TEXT
  5
1F7
330
4E
100
AcDbEntity
  8
1
 62
     3
100
AcDbText
 10
129.6551957080889
 20
347.6517110923839
 30
0.0
 40
2.5
  1
TECDOC 2D_Productdrawing
 41
0.81
  7
CONVERTER_12
100
AcDbText
  0
MTEXT
  5
1F8
330
4E
100
AcDbEntity
  8
1
 62
     2
100
AcDbMText
 10
129.6551957080889
 20
353.8517110923839
 30
0.0
 40
1.8
 41
0.0
 71
     1
 72
     1
  1
document-type
  7
CONVERTER_11
 73
     1
 44
1.20048019207683
  0
MTEXT
  5
1F9
330
4E
100
AcDbEntity
  8
1
 62
     2
100
AcDbMText
 10
159.4815919531618
 20
362.3517110923839
 30
0.0
 40
1.8
 41
0.0
 71
     1
 72
     1
  1
date
  7
CONVERTER_11
 73
     1
 44
1.32052821128451
  0
TEXT
  5
1FA
330
4E
100
AcDbEntity
  8
1
 62
     3
100
AcDbText
 10
159.4815919531618
 20
356.1517110923839
 30
0.0
 40
2.5
  1
26.01.2018
 41
0.81
  7
CONVERTER_12
100
AcDbText
  0
TEXT
  5
1FB
330
4E
100
AcDbEntity
  8
1
 62
     7
100
AcDbText
 10
121.8851079271447
 20
356.1517110923839
 30
0.0
 40
2.5
  1
02
 41
0.81
  7
CONVERTER_12
100
AcDbText
  0
TEXT
  5
1FC
330
4E
100
AcDbEntity
  8
1
 62
     7
100
AcDbText
 10
119.7287434301027
 20
356.1517110923839
 30
0.0
 40
2.5
  1
/
 41
0.9
  7
CONVERTER_11
100
AcDbText
  0
HATCH
  5
1FD
330
4E
100
AcDbEntity
  8
1
  6
Continuous
 62
     2
100
AcDbHatch
 10
0.0
 20
0.0
 30
0.0
210
0.0
220
0.0
230
1.0
  2
_USER
 70
     0
 71
     1
 91
        1
 92
        1
 93
       12
 72
     1
 10
82.02269642105003
 20
348.5044015685746
 11
80.82990371888363
 21
348.5044015685746
 72
     1
 10
80.82990371888363
 20
348.5044015685746
 11
80.82990371888363
 21
349.6386736774184
 72
     1
 10
80.82990371888363
 20
349.6386736774184
 11
79.78024614097615
 21
349.6386736774184
 72
     1
 10
79.78024614097615
 20
349.6386736774184
 11
79.78024614097615
 21
348.5044015685746
 72
     1
 10
79.78024614097615
 20
348.5044015685746
 11
78.58745343880955
 21
348.5044015685746
 72
     1
 10
78.58745343880955
 20
348.5044015685746
 11
78.58745343880955
 21
351.5582110923858
 72
     1
 10
78.58745343880955
 20
351.5582110923858
 11
79.78024614097615
 21
351.5582110923858
 72
     1
 10
79.78024614097615
 20
351.5582110923858
 11
79.78024614097615
 21
350.4893777590512
 72
     1
 10
79.78024614097615
 20
350.4893777590512
 11
80.82990371888363
 21
350.4893777590512
 72
     1
 10
80.82990371888363
 20
350.4893777590512
 11
80.82990371888363
 21
351.5582110923858
 72
     1
 10
80.82990371888363
 20
351.5582110923858
 11
82.02269642105003
 21
351.5582110923858
 72
     1
 10
82.02269642105003
 20
351.5582110923858
 11
82.02269642105003
 21
348.5044015685746
 97
       12
330
16A
330
16B
330
155
330
154
330
153
330
167
330
152
330
168
330
169
330
151
330
150
330
14F
 75
     1
 76
     0
 52
45.0
 41
0.1
 77
     0
 78
     1
 53
45.0
 43
0.0
 44
0.0
 45
-0.0707106781186548
 46
0.0707106781186548
 79
     0
 98
        1
 10
0.0
 20
0.0
  0
HATCH
  5
1FE
330
4E
100
AcDbEntity
  8
1
  6
Continuous
 62
     2
100
AcDbHatch
 10
0.0
 20
0.0
 30
0.0
210
0.0
220
0.0
230
1.0
  2
_USER
 70
     0
 71
     1
 91
        1
 92
        1
 93
       12
 72
     1
 10
82.02269642105003
 20
348.5044015685746
 11
80.82990371888363
 21
348.5044015685746
 72
     1
 10
80.82990371888363
 20
348.5044015685746
 11
80.82990371888363
 21
349.6386736774184
 72
     1
 10
80.82990371888363
 20
349.6386736774184
 11
79.78024614097615
 21
349.6386736774184
 72
     1
 10
79.78024614097615
 20
349.6386736774184
 11
79.78024614097615
 21
348.5044015685746
 72
     1
 10
79.78024614097615
 20
348.5044015685746
 11
78.58745343880955
 21
348.5044015685746
 72
     1
 10
78.58745343880955
 20
348.5044015685746
 11
78.58745343880955
 21
351.5582110923858
 72
     1
 10
78.58745343880955
 20
351.5582110923858
 11
79.78024614097615
 21
351.5582110923858
 72
     1
 10
79.78024614097615
 20
351.5582110923858
 11
79.78024614097615
 21
350.4893777590512
 72
     1
 10
79.78024614097615
 20
350.4893777590512
 11
80.82990371888363
 21
350.4893777590512
 72
     1
 10
80.82990371888363
 20
350.4893777590512
 11
80.82990371888363
 21
351.5582110923858
 72
     1
 10
80.82990371888363
 20
351.5582110923858
 11
82.02269642105003
 21
351.5582110923858
 72
     1
 10
82.02269642105003
 20
351.5582110923858
 11
82.02269642105003
 21
348.5044015685746
 97
       12
330
16A
330
16B
330
155
330
154
330
153
330
167
330
152
330
168
330
169
330
151
330
150
330
14F
 75
     1
 76
     0
 52
45.0
 41
0.1
 77
     0
 78
     1
 53
45.0
 43
0.0
 44
0.0
 45
-0.0707106781186548
 46
0.0707106781186548
 79
     0
 98
        1
 10
0.0
 20
0.0
  0
HATCH
  5
1FF
330
4E
100
AcDbEntity
  8
1
  6
Continuous
 62
     2
100
AcDbHatch
 10
0.0
 20
0.0
 30
0.0
210
0.0
220
0.0
230
1.0
  2
_USER
 70
     0
 71
     1
 91
        1
 92
        1
 93
       10
 72
     1
 10
84.26499577023833
 20
346.8902451060063
 11
83.02449135998543
 21
348.1990206162114
 72
     1
 10
83.02449135998543
 20
348.1990206162114
 11
81.83169865781784
 21
348.1990206162114
 72
     1
 10
81.83169865781784
 20
348.1990206162114
 11
81.83169865781784
 21
345.1452110924003
 72
     1
 10
81.83169865781784
 20
345.1452110924003
 11
83.02449135998543
 21
345.1452110924003
 72
     1
 10
83.02449135998543
 20
345.1452110924003
 11
83.02449135998543
 21
346.4539866026049
 72
     1
 10
83.02449135998543
 20
346.4539866026049
 11
84.26499577023833
 21
345.1452110924003
 72
     1
 10
84.26499577023833
 20
345.1452110924003
 11
85.45778847240473
 21
345.1452110924003
 72
     1
 10
85.45778847240473
 20
345.1452110924003
 11
85.45778847240473
 21
348.1990206162114
 72
     1
 10
85.45778847240473
 20
348.1990206162114
 11
84.26499577023833
 21
348.1990206162114
 72
     1
 10
84.26499577023833
 20
348.1990206162114
 11
84.26499577023833
 21
346.8902451060063
 97
       10
330
178
330
148
330
147
330
14A
330
173
330
174
330
149
330
175
330
176
330
177
 75
     1
 76
     0
 52
45.0
 41
0.1
 77
     0
 78
     1
 53
45.0
 43
0.0
 44
0.0
 45
-0.0707106781186548
 46
0.0707106781186548
 79
     0
 98
        1
 10
0.0
 20
0.0
  0
HATCH
  5
200
330
4E
100
AcDbEntity
  8
1
  6
Continuous
 62
     2
100
AcDbHatch
 10
0.0
 20
0.0
 30
0.0
210
0.0
220
0.0
230
1.0
  2
_USER
 70
     0
 71
     1
 91
        1
 92
        1
 93
       10
 72
     1
 10
84.26499577023833
 20
346.8902451060063
 11
83.02449135998543
 21
348.1990206162114
 72
     1
 10
83.02449135998543
 20
348.1990206162114
 11
81.83169865781784
 21
348.1990206162114
 72
     1
 10
81.83169865781784
 20
348.1990206162114
 11
81.83169865781784
 21
345.1452110924003
 72
     1
 10
81.83169865781784
 20
345.1452110924003
 11
83.02449135998543
 21
345.1452110924003
 72
     1
 10
83.02449135998543
 20
345.1452110924003
 11
83.02449135998543
 21
346.4539866026049
 72
     1
 10
83.02449135998543
 20
346.4539866026049
 11
84.26499577023833
 21
345.1452110924003
 72
     1
 10
84.26499577023833
 20
345.1452110924003
 11
85.45778847240473
 21
345.1452110924003
 72
     1
 10
85.45778847240473
 20
345.1452110924003
 11
85.45778847240473
 21
348.1990206162114
 72
     1
 10
85.45778847240473
 20
348.1990206162114
 11
84.26499577023833
 21
348.1990206162114
 72
     1
 10
84.26499577023833
 20
348.1990206162114
 11
84.26499577023833
 21
346.8902451060063
 97
       10
330
178
330
148
330
147
330
14A
330
173
330
174
330
149
330
175
330
176
330
177
 75
     1
 76
     0
 52
45.0
 41
0.1
 77
     0
 78
     1
 53
45.0
 43
0.0
 44
0.0
 45
-0.0707106781186548
 46
0.0707106781186548
 79
     0
 98
        1
 10
0.0
 20
0.0
  0
HATCH
  5
201
330
4E
100
AcDbEntity
  8
1
  6
Continuous
 62
     2
100
AcDbHatch
 10
0.0
 20
0.0
 30
0.0
210
0.0
220
0.0
230
1.0
  2
_USER
 70
     0
 71
     1
 91
        1
 92
        1
 93
       10
 72
     1
 10
89.51343459065805
 20
350.2494355821806
 11
88.27293018040405
 21
351.5582110923858
 72
     1
 10
88.27293018040405
 20
351.5582110923858
 11
87.08013747823753
 21
351.5582110923858
 72
     1
 10
87.08013747823753
 20
351.5582110923858
 11
87.08013747823753
 21
348.5044015685746
 72
     1
 10
87.08013747823753
 20
348.5044015685746
 11
88.27293018040405
 21
348.5044015685746
 72
     1
 10
88.27293018040405
 20
348.5044015685746
 11
88.27293018040405
 21
349.8131770787793
 72
     1
 10
88.27293018040405
 20
349.8131770787793
 11
89.51343459065805
 21
348.5044015685746
 72
     1
 10
89.51343459065805
 20
348.5044015685746
 11
90.70622729282465
 21
348.5044015685746
 72
     1
 10
90.70622729282465
 20
348.5044015685746
 11
90.70622729282465
 21
351.5582110923858
 72
     1
 10
90.70622729282465
 20
351.5582110923858
 11
89.51343459065805
 21
351.5582110923858
 72
     1
 10
89.51343459065805
 20
351.5582110923858
 11
89.51343459065805
 21
350.2494355821806
 97
       10
330
17D
330
145
330
144
330
17E
330
143
330
179
330
17A
330
17B
330
17C
330
146
 75
     1
 76
     0
 52
45.0
 41
0.1
 77
     0
 78
     1
 53
45.0
 43
0.0
 44
0.0
 45
-0.0707106781186548
 46
0.0707106781186548
 79
     0
 98
        1
 10
0.0
 20
0.0
  0
HATCH
  5
202
330
4E
100
AcDbEntity
  8
1
  6
Continuous
 62
     2
100
AcDbHatch
 10
0.0
 20
0.0
 30
0.0
210
0.0
220
0.0
230
1.0
  2
_USER
 70
     0
 71
     1
 91
        1
 92
        1
 93
       10
 72
     1
 10
89.51343459065805
 20
350.2494355821806
 11
88.27293018040405
 21
351.5582110923858
 72
     1
 10
88.27293018040405
 20
351.5582110923858
 11
87.08013747823753
 21
351.5582110923858
 72
     1
 10
87.08013747823753
 20
351.5582110923858
 11
87.08013747823753
 21
348.5044015685746
 72
     1
 10
87.08013747823753
 20
348.5044015685746
 11
88.27293018040405
 21
348.5044015685746
 72
     1
 10
88.27293018040405
 20
348.5044015685746
 11
88.27293018040405
 21
349.8131770787793
 72
     1
 10
88.27293018040405
 20
349.8131770787793
 11
89.51343459065805
 21
348.5044015685746
 72
     1
 10
89.51343459065805
 20
348.5044015685746
 11
90.70622729282465
 21
348.5044015685746
 72
     1
 10
90.70622729282465
 20
348.5044015685746
 11
90.70622729282465
 21
351.5582110923858
 72
     1
 10
90.70622729282465
 20
351.5582110923858
 11
89.51343459065805
 21
351.5582110923858
 72
     1
 10
89.51343459065805
 20
351.5582110923858
 11
89.51343459065805
 21
350.2494355821806
 97
       10
330
17D
330
145
330
144
330
17E
330
143
330
179
330
17A
330
17B
330
17C
330
146
 75
     1
 76
     0
 52
45.0
 41
0.1
 77
     0
 78
     1
 53
45.0
 43
0.0
 44
0.0
 45
-0.0707106781186548
 46
0.0707106781186548
 79
     0
 98
        1
 10
0.0
 20
0.0
  0
HATCH
  5
203
330
4E
100
AcDbEntity
  8
1
  6
Continuous
 62
     2
100
AcDbHatch
 10
0.0
 20
0.0
 30
0.0
210
0.0
220
0.0
230
1.0
  2
_USER
 70
     0
 71
     1
 91
        1
 92
        1
 93
        8
 72
     1
 10
88.41591437377855
 20
348.1990206162114
 11
85.60092359666493
 21
348.1990206162114
 72
     1
 10
85.60092359666493
 20
348.1990206162114
 11
85.60092359666493
 21
347.4137553100878
 72
     1
 10
85.60092359666493
 20
347.4137553100878
 11
86.41202263413953
 21
347.4137553100878
 72
     1
 10
86.41202263413953
 20
347.4137553100878
 11
86.41202263413953
 21
345.1452110924003
 72
     1
 10
86.41202263413953
 20
345.1452110924003
 11
87.60481533630605
 21
345.1452110924003
 72
     1
 10
87.60481533630605
 20
345.1452110924003
 11
87.60481533630605
 21
347.4137553100878
 72
     1
 10
87.60481533630605
 20
347.4137553100878
 11
88.41591437377855
 21
347.4137553100878
 72
     1
 10
88.41591437377855
 20
347.4137553100878
 11
88.41591437377855
 21
348.1990206162114
 97
        8
330
13F
330
17F
330
13E
330
180
330
181
330
142
330
141
330
140
 75
     1
 76
     0
 52
45.0
 41
0.1
 77
     0
 78
     1
 53
45.0
 43
0.0
 44
0.0
 45
-0.0707106781186548
 46
0.0707106781186548
 79
     0
 98
        1
 10
0.0
 20
0.0
  0
HATCH
  5
204
330
4E
100
AcDbEntity
  8
1
  6
Continuous
 62
     2
100
AcDbHatch
 10
0.0
 20
0.0
 30
0.0
210
0.0
220
0.0
230
1.0
  2
_USER
 70
     0
 71
     1
 91
        1
 92
        1
 93
        8
 72
     1
 10
88.41591437377855
 20
348.1990206162114
 11
85.60092359666493
 21
348.1990206162114
 72
     1
 10
85.60092359666493
 20
348.1990206162114
 11
85.60092359666493
 21
347.4137553100878
 72
     1
 10
85.60092359666493
 20
347.4137553100878
 11
86.41202263413953
 21
347.4137553100878
 72
     1
 10
86.41202263413953
 20
347.4137553100878
 11
86.41202263413953
 21
345.1452110924003
 72
     1
 10
86.41202263413953
 20
345.1452110924003
 11
87.60481533630605
 21
345.1452110924003
 72
     1
 10
87.60481533630605
 20
345.1452110924003
 11
87.60481533630605
 21
347.4137553100878
 72
     1
 10
87.60481533630605
 20
347.4137553100878
 11
88.41591437377855
 21
347.4137553100878
 72
     1
 10
88.41591437377855
 20
347.4137553100878
 11
88.41591437377855
 21
348.1990206162114
 97
        8
330
13F
330
17F
330
13E
330
180
330
181
330
142
330
141
330
140
 75
     1
 76
     0
 52
45.0
 41
0.1
 77
     0
 78
     1
 53
45.0
 43
0.0
 44
0.0
 45
-0.0707106781186548
 46
0.0707106781186548
 79
     0
 98
        1
 10
0.0
 20
0.0
  0
HATCH
  5
205
330
4E
100
AcDbEntity
  8
1
  6
Continuous
 62
     2
100
AcDbHatch
 10
0.0
 20
0.0
 30
0.0
210
0.0
220
0.0
230
1.0
  2
_USER
 70
     0
 71
     1
 91
        2
 92
        1
 93
        8
 72
     1
 10
90.55434182972553
 20
345.1452110924003
 11
90.34286177624975
 21
345.6861716366182
 72
     1
 10
90.34286177624975
 20
345.6861716366182
 11
89.21042019957594
 21
345.6861716366182
 72
     1
 10
89.21042019957594
 20
345.6861716366182
 11
88.99894014610013
 21
345.1452110924003
 72
     1
 10
88.99894014610013
 20
345.1452110924003
 11
87.75843573584714
 21
345.1452110924003
 72
     1
 10
87.75843573584714
 20
345.1452110924003
 11
89.15638878278645
 21
348.1990206162114
 72
     1
 10
89.15638878278645
 20
348.1990206162114
 11
90.39689319303915
 21
348.1990206162114
 72
     1
 10
90.39689319303915
 20
348.1990206162114
 11
91.79484623997945
 21
345.1452110924003
 72
     1
 10
91.79484623997945
 20
345.1452110924003
 11
90.55434182972553
 21
345.1452110924003
 97
        8
330
183
330
184
330
13B
330
185
330
13A
330
13D
330
182
330
13C
 92
       16
 93
        3
 72
     1
 10
89.47647575072094
 20
346.3667349019248
 11
89.77664098791334
 21
347.1345498679115
 72
     1
 10
89.77664098791334
 20
347.1345498679115
 11
90.07680622510344
 21
346.3667349019248
 72
     1
 10
90.07680622510344
 20
346.3667349019248
 11
89.47647575072094
 21
346.3667349019248
 97
        3
330
139
330
187
330
186
 75
     1
 76
     0
 52
45.0
 41
0.1
 77
     0
 78
     1
 53
45.0
 43
0.0
 44
0.0
 45
-0.0707106781186548
 46
0.0707106781186548
 79
     0
 98
        1
 10
0.0
 20
0.0
  0
HATCH
  5
206
330
4E
100
AcDbEntity
  8
1
  6
Continuous
 62
     2
100
AcDbHatch
 10
0.0
 20
0.0
 30
0.0
210
0.0
220
0.0
230
1.0
  2
_USER
 70
     0
 71
     1
 91
        2
 92
        1
 93
        8
 72
     1
 10
90.55434182972553
 20
345.1452110924003
 11
90.34286177624975
 21
345.6861716366182
 72
     1
 10
90.34286177624975
 20
345.6861716366182
 11
89.21042019957594
 21
345.6861716366182
 72
     1
 10
89.21042019957594
 20
345.6861716366182
 11
88.99894014610013
 21
345.1452110924003
 72
     1
 10
88.99894014610013
 20
345.1452110924003
 11
87.75843573584714
 21
345.1452110924003
 72
     1
 10
87.75843573584714
 20
345.1452110924003
 11
89.15638878278645
 21
348.1990206162114
 72
     1
 10
89.15638878278645
 20
348.1990206162114
 11
90.39689319303915
 21
348.1990206162114
 72
     1
 10
90.39689319303915
 20
348.1990206162114
 11
91.79484623997945
 21
345.1452110924003
 72
     1
 10
91.79484623997945
 20
345.1452110924003
 11
90.55434182972553
 21
345.1452110924003
 97
        8
330
183
330
184
330
13B
330
185
330
13A
330
13D
330
182
330
13C
 92
       16
 93
        3
 72
     1
 10
89.47647575072094
 20
346.3667349019248
 11
89.77664098791334
 21
347.1345498679115
 72
     1
 10
89.77664098791334
 20
347.1345498679115
 11
90.07680622510344
 21
346.3667349019248
 72
     1
 10
90.07680622510344
 20
346.3667349019248
 11
89.47647575072094
 21
346.3667349019248
 97
        3
330
139
330
187
330
186
 75
     1
 76
     0
 52
45.0
 41
0.1
 77
     0
 78
     1
 53
45.0
 43
0.0
 44
0.0
 45
-0.0707106781186548
 46
0.0707106781186548
 79
     0
 98
        1
 10
0.0
 20
0.0
  0
HATCH
  5
207
330
4E
100
AcDbEntity
  8
1
  6
Continuous
 62
     2
100
AcDbHatch
 10
0.0
 20
0.0
 30
0.0
210
0.0
220
0.0
230
1.0
  2
_USER
 70
     0
 71
     1
 91
        1
 92
        1
 93
        4
 72
     1
 10
92.18529024351145
 20
348.5044015685746
 11
90.94478583325855
 21
348.5044015685746
 72
     1
 10
90.94478583325855
 20
348.5044015685746
 11
90.94478583325855
 21
351.5582110923858
 72
     1
 10
90.94478583325855
 20
351.5582110923858
 11
92.18529024351145
 21
351.5582110923858
 72
     1
 10
92.18529024351145
 20
351.5582110923858
 11
92.18529024351145
 21
348.5044015685746
 97
        4
330
136
330
138
330
188
330
137
 75
     1
 76
     0
 52
45.0
 41
0.1
 77
     0
 78
     1
 53
45.0
 43
0.0
 44
0.0
 45
-0.0707106781186548
 46
0.0707106781186548
 79
     0
 98
        1
 10
0.0
 20
0.0
  0
HATCH
  5
208
330
4E
100
AcDbEntity
  8
1
  6
Continuous
 62
     2
100
AcDbHatch
 10
0.0
 20
0.0
 30
0.0
210
0.0
220
0.0
230
1.0
  2
_USER
 70
     0
 71
     1
 91
        1
 92
        1
 93
        4
 72
     1
 10
92.18529024351145
 20
348.5044015685746
 11
90.94478583325855
 21
348.5044015685746
 72
     1
 10
90.94478583325855
 20
348.5044015685746
 11
90.94478583325855
 21
351.5582110923858
 72
     1
 10
90.94478583325855
 20
351.5582110923858
 11
92.18529024351145
 21
351.5582110923858
 72
     1
 10
92.18529024351145
 20
351.5582110923858
 11
92.18529024351145
 21
348.5044015685746
 97
        4
330
136
330
138
330
188
330
137
 75
     1
 76
     0
 52
45.0
 41
0.1
 77
     0
 78
     1
 53
45.0
 43
0.0
 44
0.0
 45
-0.0707106781186548
 46
0.0707106781186548
 79
     0
 98
        1
 10
0.0
 20
0.0
  0
HATCH
  5
209
330
4E
100
AcDbEntity
  8
1
  6
Continuous
 62
     2
100
AcDbHatch
 10
0.0
 20
0.0
 30
0.0
210
0.0
220
0.0
230
1.0
  2
_USER
 70
     0
 71
     1
 91
        1
 92
        1
 93
       12
 72
     1
 10
96.40777640918225
 20
351.5582110923858
 11
95.10524677841573
 21
350.0852605623496
 72
     1
 10
95.10524677841573
 20
350.0852605623496
 11
96.50319982535603
 21
348.5044015685746
 72
     1
 10
96.50319982535603
 20
348.5044015685746
 11
95.10047560760773
 21
348.5044015685746
 72
     1
 10
95.10047560760773
 20
348.5044015685746
 11
94.40388466954224
 21
349.2921333538683
 72
     1
 10
94.40388466954224
 20
349.2921333538683
 11
93.70729373147654
 21
348.5044015685746
 72
     1
 10
93.70729373147654
 20
348.5044015685746
 11
92.30456951372832
 21
348.5044015685746
 72
     1
 10
92.30456951372832
 20
348.5044015685746
 11
93.70252256066863
 21
350.0852605623496
 72
     1
 10
93.70252256066863
 20
350.0852605623496
 11
92.39999292990115
 21
351.5582110923858
 72
     1
 10
92.39999292990115
 20
351.5582110923858
 11
93.80271714765044
 21
351.5582110923858
 72
     1
 10
93.80271714765044
 20
351.5582110923858
 11
94.40388466954224
 21
350.8783877708303
 72
     1
 10
94.40388466954224
 20
350.8783877708303
 11
95.00505219143503
 21
351.5582110923858
 72
     1
 10
95.00505219143503
 20
351.5582110923858
 11
96.40777640918225
 21
351.5582110923858
 97
       12
330
131
330
130
330
12F
330
18C
330
18D
330
189
330
18A
330
135
330
134
330
133
330
132
330
18B
 75
     1
 76
     0
 52
45.0
 41
0.1
 77
     0
 78
     1
 53
45.0
 43
0.0
 44
0.0
 45
-0.0707106781186548
 46
0.0707106781186548
 79
     0
 98
        1
 10
0.0
 20
0.0
  0
HATCH
  5
20A
330
4E
100
AcDbEntity
  8
1
  6
Continuous
 62
     2
100
AcDbHatch
 10
0.0
 20
0.0
 30
0.0
210
0.0
220
0.0
230
1.0
  2
_USER
 70
     0
 71
     1
 91
        1
 92
        1
 93
       12
 72
     1
 10
96.40777640918225
 20
351.5582110923858
 11
95.10524677841573
 21
350.0852605623496
 72
     1
 10
95.10524677841573
 20
350.0852605623496
 11
96.50319982535603
 21
348.5044015685746
 72
     1
 10
96.50319982535603
 20
348.5044015685746
 11
95.10047560760773
 21
348.5044015685746
 72
     1
 10
95.10047560760773
 20
348.5044015685746
 11
94.40388466954224
 21
349.2921333538683
 72
     1
 10
94.40388466954224
 20
349.2921333538683
 11
93.70729373147654
 21
348.5044015685746
 72
     1
 10
93.70729373147654
 20
348.5044015685746
 11
92.30456951372832
 21
348.5044015685746
 72
     1
 10
92.30456951372832
 20
348.5044015685746
 11
93.70252256066863
 21
350.0852605623496
 72
     1
 10
93.70252256066863
 20
350.0852605623496
 11
92.39999292990115
 21
351.5582110923858
 72
     1
 10
92.39999292990115
 20
351.5582110923858
 11
93.80271714765044
 21
351.5582110923858
 72
     1
 10
93.80271714765044
 20
351.5582110923858
 11
94.40388466954224
 21
350.8783877708303
 72
     1
 10
94.40388466954224
 20
350.8783877708303
 11
95.00505219143503
 21
351.5582110923858
 72
     1
 10
95.00505219143503
 20
351.5582110923858
 11
96.40777640918225
 21
351.5582110923858
 97
       12
330
131
330
130
330
12F
330
18C
330
18D
330
189
330
18A
330
135
330
134
330
133
330
132
330
18B
 75
     1
 76
     0
 52
45.0
 41
0.1
 77
     0
 78
     1
 53
45.0
 43
0.0
 44
0.0
 45
-0.0707106781186548
 46
0.0707106781186548
 79
     0
 98
        1
 10
0.0
 20
0.0
  0
HATCH
  5
20B
330
4E
100
AcDbEntity
  8
1
  6
Continuous
 62
     2
100
AcDbHatch
 10
0.0
 20
0.0
 30
0.0
210
0.0
220
0.0
230
1.0
  2
_USER
 70
     0
 71
     1
 91
        2
 92
        1
 93
        6
 72
     1
 10
77.39004099503623
 20
349.4474798097184
 11
76.63127340725595
 21
349.4474798097184
 72
     1
 10
76.63127340725595
 20
349.4474798097184
 11
76.63127340725595
 21
348.5044015685746
 72
     1
 10
76.63127340725595
 20
348.5044015685746
 11
75.39076899700183
 21
348.5044015685746
 72
     1
 10
75.39076899700183
 20
348.5044015685746
 11
75.39076899700183
 21
351.5582110923858
 72
     1
 10
75.39076899700183
 20
351.5582110923858
 11
77.39004099503623
 21
351.5582110923858
 72
     2
 10
77.39004099503623
 20
350.5028454510521
 40
1.055365641333708
 50
270.0
 51
450.0
 73
     0
 97
        6
330
159
330
158
330
165
330
164
330
15A
330
1AA
 92
       16
 93
        4
 72
     2
 10
76.94856846879784
 20
350.5422414222746
 40
0.3528638246711466
 50
270.0
 51
450.0
 73
     1
 72
     1
 10
76.94856846879784
 20
350.8951052469457
 11
76.63127340725595
 21
350.8951052469457
 72
     1
 10
76.63127340725595
 20
350.8951052469457
 11
76.63127340725595
 21
350.1893775976035
 72
     1
 10
76.63127340725595
 20
350.1893775976035
 11
76.94856846879784
 21
350.1893775976035
 97
        4
330
1BE
330
156
330
166
330
157
 75
     1
 76
     0
 52
45.0
 41
0.1
 77
     0
 78
     1
 53
45.0
 43
0.0
 44
0.0
 45
-0.0707106781186548
 46
0.0707106781186548
 79
     0
 98
        1
 10
0.0
 20
0.0
  0
HATCH
  5
20C
330
4E
100
AcDbEntity
  8
1
  6
Continuous
 62
     2
100
AcDbHatch
 10
0.0
 20
0.0
 30
0.0
210
0.0
220
0.0
230
1.0
  2
_USER
 70
     0
 71
     1
 91
        2
 92
        1
 93
        6
 72
     1
 10
77.39004099503623
 20
349.4474798097184
 11
76.63127340725595
 21
349.4474798097184
 72
     1
 10
76.63127340725595
 20
349.4474798097184
 11
76.63127340725595
 21
348.5044015685746
 72
     1
 10
76.63127340725595
 20
348.5044015685746
 11
75.39076899700183
 21
348.5044015685746
 72
     1
 10
75.39076899700183
 20
348.5044015685746
 11
75.39076899700183
 21
351.5582110923858
 72
     1
 10
75.39076899700183
 20
351.5582110923858
 11
77.39004099503623
 21
351.5582110923858
 72
     2
 10
77.39004099503623
 20
350.5028454510521
 40
1.055365641333708
 50
270.0
 51
450.0
 73
     0
 97
        6
330
159
330
158
330
165
330
164
330
15A
330
1AA
 92
       16
 93
        4
 72
     2
 10
76.94856846879784
 20
350.5422414222746
 40
0.3528638246711466
 50
270.0
 51
450.0
 73
     1
 72
     1
 10
76.94856846879784
 20
350.8951052469457
 11
76.63127340725595
 21
350.8951052469457
 72
     1
 10
76.63127340725595
 20
350.8951052469457
 11
76.63127340725595
 21
350.1893775976035
 72
     1
 10
76.63127340725595
 20
350.1893775976035
 11
76.94856846879784
 21
350.1893775976035
 97
        4
330
1BE
330
156
330
166
330
157
 75
     1
 76
     0
 52
45.0
 41
0.1
 77
     0
 78
     1
 53
45.0
 43
0.0
 44
0.0
 45
-0.0707106781186548
 46
0.0707106781186548
 79
     0
 98
        1
 10
0.0
 20
0.0
  0
HATCH
  5
20D
330
4E
100
AcDbEntity
  8
1
  6
Continuous
 62
     2
100
AcDbHatch
 10
0.0
 20
0.0
 30
0.0
210
0.0
220
0.0
230
1.0
  2
_USER
 70
     0
 71
     1
 91
        2
 92
        1
 93
        4
 72
     2
 10
79.94658374339534
 20
346.1335408440028
 40
2.065479772208543
 50
62.451851824306
 51
117.5481481756667
 73
     1
 72
     2
 10
79.66564385156204
 20
346.6721158543056
 40
1.458034083651465
 50
117.548148175663
 51
242.451851824338
 73
     1
 72
     2
 10
79.94658374339534
 20
347.2106908646089
 40
2.065479772208534
 50
242.4518518243405
 51
297.5481481756867
 73
     1
 72
     2
 10
80.22752363522864
 20
346.6721158543056
 40
1.458034083652028
 50
297.5481481757005
 51
422.4518518242985
 73
     1
 97
        4
330
1B6
330
1B5
330
1B7
330
1B4
 92
       16
 93
        4
 72
     2
 10
79.74684370704892
 20
346.6721158543056
 40
0.7717997786797298
 50
321.8795802028384
 51
398.1204197971516
 73
     1
 72
     2
 10
79.94658374339534
 20
346.8288470324261
 40
0.5179085730132998
 50
38.12041979714704
 51
141.8795802028588
 73
     1
 72
     2
 10
80.14632377974144
 20
346.6721158543056
 40
0.7717997786794457
 50
141.879580202838
 51
218.120419797172
 73
     1
 72
     2
 10
79.94658374339534
 20
346.5153846761856
 40
0.5179085730137529
 50
218.1204197971956
 51
321.8795802027985
 73
     1
 97
        4
330
1D2
330
1CF
330
1D0
330
1D1
 75
     1
 76
     0
 52
45.0
 41
0.1
 77
     0
 78
     1
 53
45.0
 43
0.0
 44
0.0
 45
-0.0707106781186548
 46
0.0707106781186548
 79
     0
 98
        1
 10
0.0
 20
0.0
  0
HATCH
  5
20E
330
4E
100
AcDbEntity
  8
1
  6
Continuous
 62
     2
100
AcDbHatch
 10
0.0
 20
0.0
 30
0.0
210
0.0
220
0.0
230
1.0
  2
_USER
 70
     0
 71
     1
 91
        2
 92
        1
 93
        4
 72
     2
 10
79.94658374339534
 20
346.1335408440028
 40
2.065479772208543
 50
62.451851824306
 51
117.5481481756667
 73
     1
 72
     2
 10
79.66564385156204
 20
346.6721158543056
 40
1.458034083651465
 50
117.548148175663
 51
242.451851824338
 73
     1
 72
     2
 10
79.94658374339534
 20
347.2106908646089
 40
2.065479772208534
 50
242.4518518243405
 51
297.5481481756867
 73
     1
 72
     2
 10
80.22752363522864
 20
346.6721158543056
 40
1.458034083652028
 50
297.5481481757005
 51
422.4518518242985
 73
     1
 97
        4
330
1B6
330
1B5
330
1B7
330
1B4
 92
       16
 93
        4
 72
     2
 10
79.74684370704892
 20
346.6721158543056
 40
0.7717997786797298
 50
321.8795802028384
 51
398.1204197971516
 73
     1
 72
     2
 10
79.94658374339534
 20
346.8288470324261
 40
0.5179085730132998
 50
38.12041979714704
 51
141.8795802028588
 73
     1
 72
     2
 10
80.14632377974144
 20
346.6721158543056
 40
0.7717997786794457
 50
141.879580202838
 51
218.120419797172
 73
     1
 72
     2
 10
79.94658374339534
 20
346.5153846761856
 40
0.5179085730137529
 50
218.1204197971956
 51
321.8795802027985
 73
     1
 97
        4
330
1D2
330
1CF
330
1D0
330
1D1
 75
     1
 76
     0
 52
45.0
 41
0.1
 77
     0
 78
     1
 53
45.0
 43
0.0
 44
0.0
 45
-0.0707106781186548
 46
0.0707106781186548
 79
     0
 98
        1
 10
0.0
 20
0.0
  0
HATCH
  5
20F
330
4E
100
AcDbEntity
  8
1
  6
Continuous
 62
     2
100
AcDbHatch
 10
0.0
 20
0.0
 30
0.0
210
0.0
220
0.0
230
1.0
  2
_USER
 70
     0
 71
     1
 91
        2
 92
        1
 93
       12
 72
     1
 10
86.84157893780463
 20
350.8601974869428
 11
85.50565111137695
 21
350.8601974869428
 72
     1
 10
85.50565111137695
 20
350.8601974869428
 11
85.50565111137695
 21
350.3803131332011
 72
     1
 10
85.50565111137695
 20
350.3803131332011
 11
86.84157893780463
 21
350.3803131332011
 72
     1
 10
86.84157893780463
 20
350.3803131332011
 11
86.84157893780463
 21
349.6822995277588
 72
     1
 10
86.84157893780463
 20
349.6822995277588
 11
85.50565111137695
 21
349.6822995277588
 72
     1
 10
85.50565111137695
 20
349.6822995277588
 11
85.50565111137695
 21
349.2024151740171
 72
     1
 10
85.50565111137695
 20
349.2024151740171
 11
86.84157893780463
 21
349.2024151740171
 72
     1
 10
86.84157893780463
 20
349.2024151740171
 11
86.84157893780463
 21
348.5044015685746
 72
     1
 10
86.84157893780463
 20
348.5044015685746
 11
83.69125921402363
 21
348.5044015685746
 72
     2
 10
83.69125921402363
 20
350.0313063304799
 40
1.526904761905939
 50
90.0
 51
270.0
 73
     0
 72
     1
 10
83.69125921402363
 20
351.5582110923858
 11
86.84157893780463
 21
351.5582110923858
 72
     1
 10
86.84157893780463
 20
351.5582110923858
 11
86.84157893780463
 21
350.8601974869428
 97
       12
330
16D
330
1BF
330
16E
330
16F
330
170
330
171
330
14E
330
14D
330
14C
330
14B
330
172
330
16C
 92
       16
 93
        4
 72
     2
 10
83.90753122418883
 20
350.1880375086004
 40
0.5179085730135266
 50
38.12041979714334
 51
141.8795802028489
 73
     1
 72
     2
 10
84.10727126053513
 20
350.0313063304799
 40
0.7717997786797075
 50
141.8795802028371
 51
218.1204197971529
 73
     1
 72
     2
 10
83.90753122418883
 20
349.8745751523595
 40
0.5179085730134372
 50
218.1204197971511
 51
321.8795802028566
 73
     1
 72
     2
 10
83.70779118784264
 20
350.0313063304799
 40
0.7717997786796023
 50
321.8795802028471
 51
398.1204197971629
 73
     1
 97
        4
330
1B9
330
1B8
330
1B3
330
1B2
 75
     1
 76
     0
 52
45.0
 41
0.1
 77
     0
 78
     1
 53
45.0
 43
0.0
 44
0.0
 45
-0.0707106781186548
 46
0.0707106781186548
 79
     0
 98
        1
 10
0.0
 20
0.0
  0
HATCH
  5
210
330
4E
100
AcDbEntity
  8
1
  6
Continuous
 62
     2
100
AcDbHatch
 10
0.0
 20
0.0
 30
0.0
210
0.0
220
0.0
230
1.0
  2
_USER
 70
     0
 71
     1
 91
        2
 92
        1
 93
       12
 72
     1
 10
86.84157893780463
 20
350.8601974869428
 11
85.50565111137695
 21
350.8601974869428
 72
     1
 10
85.50565111137695
 20
350.8601974869428
 11
85.50565111137695
 21
350.3803131332011
 72
     1
 10
85.50565111137695
 20
350.3803131332011
 11
86.84157893780463
 21
350.3803131332011
 72
     1
 10
86.84157893780463
 20
350.3803131332011
 11
86.84157893780463
 21
349.6822995277588
 72
     1
 10
86.84157893780463
 20
349.6822995277588
 11
85.50565111137695
 21
349.6822995277588
 72
     1
 10
85.50565111137695
 20
349.6822995277588
 11
85.50565111137695
 21
349.2024151740171
 72
     1
 10
85.50565111137695
 20
349.2024151740171
 11
86.84157893780463
 21
349.2024151740171
 72
     1
 10
86.84157893780463
 20
349.2024151740171
 11
86.84157893780463
 21
348.5044015685746
 72
     1
 10
86.84157893780463
 20
348.5044015685746
 11
83.69125921402363
 21
348.5044015685746
 72
     2
 10
83.69125921402363
 20
350.0313063304799
 40
1.526904761905939
 50
90.0
 51
270.0
 73
     0
 72
     1
 10
83.69125921402363
 20
351.5582110923858
 11
86.84157893780463
 21
351.5582110923858
 72
     1
 10
86.84157893780463
 20
351.5582110923858
 11
86.84157893780463
 21
350.8601974869428
 97
       12
330
16D
330
1BF
330
16E
330
16F
330
170
330
171
330
14E
330
14D
330
14C
330
14B
330
172
330
16C
 92
       16
 93
        4
 72
     2
 10
83.90753122418883
 20
350.1880375086004
 40
0.5179085730135266
 50
38.12041979714334
 51
141.8795802028489
 73
     1
 72
     2
 10
84.10727126053513
 20
350.0313063304799
 40
0.7717997786797075
 50
141.8795802028371
 51
218.1204197971529
 73
     1
 72
     2
 10
83.90753122418883
 20
349.8745751523595
 40
0.5179085730134372
 50
218.1204197971511
 51
321.8795802028566
 73
     1
 72
     2
 10
83.70779118784264
 20
350.0313063304799
 40
0.7717997786796023
 50
321.8795802028471
 51
398.1204197971629
 73
     1
 97
        4
330
1B9
330
1B8
330
1B3
330
1B2
 75
     1
 76
     0
 52
45.0
 41
0.1
 77
     0
 78
     1
 53
45.0
 43
0.0
 44
0.0
 45
-0.0707106781186548
 46
0.0707106781186548
 79
     0
 98
        1
 10
0.0
 20
0.0
  0
HATCH
  5
211
330
4E
100
AcDbEntity
  8
1
  6
Continuous
 62
     2
100
AcDbHatch
 10
0.0
 20
0.0
 30
0.0
210
0.0
220
0.0
230
1.0
  2
_USER
 70
     0
 71
     1
 91
        4
 92
        1
 93
        8
 72
     1
 10
74.91365191613502
 20
351.1339664769838
 11
74.91365191613502
 21
345.5694557077836
 72
     2
 10
74.48940730075114
 20
345.5694557077836
 40
0.4242446153833157
 50
0.0
 51
90.0
 73
     0
 72
     1
 10
74.48940730075114
 20
345.1452110924003
 11
69.01609521003434
 21
345.1452110924003
 72
     2
 10
69.01609521003434
 20
345.5694557077836
 40
0.4242446153828041
 50
90.0
 51
180.0
 73
     0
 72
     1
 10
68.59185059465153
 20
345.5694557077836
 11
68.59185059465153
 21
351.1339664769838
 72
     2
 10
69.01609521003434
 20
351.1339664769838
 40
0.4242446153838273
 50
180.0
 51
270.0
 73
     0
 72
     1
 10
69.01609521003434
 20
351.5582110923676
 11
74.48940730075114
 21
351.5582110923676
 72
     2
 10
74.48940730075114
 20
351.1339664769838
 40
0.4242446153838841
 50
270.0
 51
360.0
 73
     0
 97
        8
330
161
330
1AF
330
162
330
1BA
330
15F
330
1B1
330
160
330
1B0
 92
       16
 93
        1
 72
     2
 10
71.63568086055184
 20
348.8150842486283
 40
0.4709789327785074
 50
0.0
 51
360.0
 73
     1
 97
        1
330
1D5
 92
       16
 93
        8
 72
     2
 10
72.18553857331253
 20
347.7059426486599
 40
0.3157169230764815
 50
115.3740086783563
 51
180.0
 73
     1
 72
     1
 10
71.86982165023574
 20
347.7059426486599
 11
71.86982165023574
 21
347.1240912419648
 72
     2
 10
72.18553857331253
 20
347.1240912419648
 40
0.315716923076792
 50
180.0
 51
269.8110329574541
 73
     1
 72
     2
 10
72.19115470862255
 20
348.8269261895338
 40
2.018561131933266
 50
269.8110329575858
 51
450.1889670424142
 73
     1
 72
     2
 10
72.18553857331253
 20
350.5297611371029
 40
0.3157169230760142
 50
90.18896704254595
 51
180.0
 73
     1
 72
     1
 10
71.86982165023574
 20
350.5297611371029
 11
71.86982165023574
 21
349.9242258485961
 72
     2
 10
72.18553857331253
 20
349.9242258485961
 40
0.315716923076792
 50
180.0
 51
244.6259913216482
 73
     1
 72
     2
 10
71.65949587522465
 20
348.8150842486283
 40
0.9118481501444847
 50
295.3740086781925
 51
424.6259913218244
 73
     0
 97
        8
330
1C7
330
128
330
1C4
330
1C5
330
1A3
330
127
330
1C6
330
1A2
 92
       16
 93
       12
 72
     2
 10
69.60998988678082
 20
346.1734835710339
 40
0.3157169230756836
 50
180.0
 51
270.0
 73
     1
 72
     1
 10
69.60998988678082
 20
345.8577666479572
 11
71.08582314779045
 21
345.8577666479572
 72
     2
 10
71.08582314779045
 20
346.1734835710339
 40
0.3157169230767067
 50
270.0
 51
360.0
 73
     1
 72
     1
 10
71.40154007086704
 20
346.1734835710339
 11
71.40154007086704
 21
347.7042545025655
 72
     2
 10
71.08582314779045
 20
347.7042545025655
 40
0.315716923076593
 50
0.0
 51
64.80558935146027
 73
     1
 72
     2
 10
71.60840759536543
 20
348.8150842486283
 40
0.9118975235575889
 50
115.1944106485122
 51
244.805589351471
 73
     0
 72
     2
 10
71.08582314779045
 20
349.9259139946905
 40
0.3157169230761717
 50
295.1944106485354
 51
360.0
 73
     1
 72
     1
 10
71.40154007086704
 20
349.9259139946905
 11
71.40154007086704
 21
350.529938613751
 72
     2
 10
71.08582314779045
 20
350.529938613751
 40
0.315716923076593
 50
0.0
 51
90.0
 73
     1
 72
     1
 10
71.08582314779045
 20
350.8456555368272
 11
69.60998988678082
 21
350.8456555368272
 72
     2
 10
69.60998988678082
 20
350.529938613751
 40
0.3157169230761951
 50
90.0
 51
180.0
 73
     1
 72
     1
 10
69.29427296370514
 20
350.529938613751
 11
69.29427296370514
 21
346.1734835710339
 97
       12
330
1AB
330
163
330
1AE
330
15E
330
1BB
330
1BC
330
1AD
330
15D
330
1AC
330
15C
330
1BD
330
15B
 75
     1
 76
     0
 52
45.0
 41
0.1
 77
     0
 78
     1
 53
45.0
 43
0.0
 44
0.0
 45
-0.0707106781186548
 46
0.0707106781186548
 79
     0
 98
        1
 10
0.0
 20
0.0
  0
HATCH
  5
212
330
4E
100
AcDbEntity
  8
1
  6
Continuous
 62
     2
100
AcDbHatch
 10
0.0
 20
0.0
 30
0.0
210
0.0
220
0.0
230
1.0
  2
_USER
 70
     0
 71
     1
 91
        4
 92
        1
 93
        8
 72
     1
 10
74.91365191613502
 20
351.1339664769838
 11
74.91365191613502
 21
345.5694557077836
 72
     2
 10
74.48940730075114
 20
345.5694557077836
 40
0.4242446153833157
 50
0.0
 51
90.0
 73
     0
 72
     1
 10
74.48940730075114
 20
345.1452110924003
 11
69.01609521003434
 21
345.1452110924003
 72
     2
 10
69.01609521003434
 20
345.5694557077836
 40
0.4242446153828041
 50
90.0
 51
180.0
 73
     0
 72
     1
 10
68.59185059465153
 20
345.5694557077836
 11
68.59185059465153
 21
351.1339664769838
 72
     2
 10
69.01609521003434
 20
351.1339664769838
 40
0.4242446153838273
 50
180.0
 51
270.0
 73
     0
 72
     1
 10
69.01609521003434
 20
351.5582110923676
 11
74.48940730075114
 21
351.5582110923676
 72
     2
 10
74.48940730075114
 20
351.1339664769838
 40
0.4242446153838841
 50
270.0
 51
360.0
 73
     0
 97
        8
330
161
330
1AF
330
162
330
1BA
330
15F
330
1B1
330
160
330
1B0
 92
       16
 93
        1
 72
     2
 10
71.63568086055184
 20
348.8150842486283
 40
0.4709789327785074
 50
0.0
 51
360.0
 73
     1
 97
        1
330
1D5
 92
       16
 93
        8
 72
     2
 10
72.18553857331253
 20
347.7059426486599
 40
0.3157169230764815
 50
115.3740086783563
 51
180.0
 73
     1
 72
     1
 10
71.86982165023574
 20
347.7059426486599
 11
71.86982165023574
 21
347.1240912419648
 72
     2
 10
72.18553857331253
 20
347.1240912419648
 40
0.315716923076792
 50
180.0
 51
269.8110329574541
 73
     1
 72
     2
 10
72.19115470862255
 20
348.8269261895338
 40
2.018561131933266
 50
269.8110329575858
 51
450.1889670424142
 73
     1
 72
     2
 10
72.18553857331253
 20
350.5297611371029
 40
0.3157169230760142
 50
90.18896704254595
 51
180.0
 73
     1
 72
     1
 10
71.86982165023574
 20
350.5297611371029
 11
71.86982165023574
 21
349.9242258485961
 72
     2
 10
72.18553857331253
 20
349.9242258485961
 40
0.315716923076792
 50
180.0
 51
244.6259913216482
 73
     1
 72
     2
 10
71.65949587522465
 20
348.8150842486283
 40
0.9118481501444847
 50
295.3740086781925
 51
424.6259913218244
 73
     0
 97
        8
330
1C7
330
128
330
1C4
330
1C5
330
1A3
330
127
330
1C6
330
1A2
 92
       16
 93
       12
 72
     2
 10
69.60998988678082
 20
346.1734835710339
 40
0.3157169230756836
 50
180.0
 51
270.0
 73
     1
 72
     1
 10
69.60998988678082
 20
345.8577666479572
 11
71.08582314779045
 21
345.8577666479572
 72
     2
 10
71.08582314779045
 20
346.1734835710339
 40
0.3157169230767067
 50
270.0
 51
360.0
 73
     1
 72
     1
 10
71.40154007086704
 20
346.1734835710339
 11
71.40154007086704
 21
347.7042545025655
 72
     2
 10
71.08582314779045
 20
347.7042545025655
 40
0.315716923076593
 50
0.0
 51
64.80558935146027
 73
     1
 72
     2
 10
71.60840759536543
 20
348.8150842486283
 40
0.9118975235575889
 50
115.1944106485122
 51
244.805589351471
 73
     0
 72
     2
 10
71.08582314779045
 20
349.9259139946905
 40
0.3157169230761717
 50
295.1944106485354
 51
360.0
 73
     1
 72
     1
 10
71.40154007086704
 20
349.9259139946905
 11
71.40154007086704
 21
350.529938613751
 72
     2
 10
71.08582314779045
 20
350.529938613751
 40
0.315716923076593
 50
0.0
 51
90.0
 73
     1
 72
     1
 10
71.08582314779045
 20
350.8456555368272
 11
69.60998988678082
 21
350.8456555368272
 72
     2
 10
69.60998988678082
 20
350.529938613751
 40
0.3157169230761951
 50
90.0
 51
180.0
 73
     1
 72
     1
 10
69.29427296370514
 20
350.529938613751
 11
69.29427296370514
 21
346.1734835710339
 97
       12
330
1AB
330
163
330
1AE
330
15E
330
1BB
330
1BC
330
1AD
330
15D
330
1AC
330
15C
330
1BD
330
15B
 75
     1
 76
     0
 52
45.0
 41
0.1
 77
     0
 78
     1
 53
45.0
 43
0.0
 44
0.0
 45
-0.0707106781186548
 46
0.0707106781186548
 79
     0
 98
        1
 10
0.0
 20
0.0
  0
HATCH
  5
213
330
4E
100
AcDbEntity
  8
1
  6
Continuous
 62
     2
100
AcDbHatch
 10
0.0
 20
0.0
 30
0.0
210
0.0
220
0.0
230
1.0
  2
_USER
 70
     0
 71
     1
 91
        1
 92
        1
 93
       18
 72
     1
 10
96.50319982535603
 20
347.4137553100878
 11
95.69210078788265
 21
347.4137553100878
 72
     1
 10
95.69210078788265
 20
347.4137553100878
 11
95.69210078788265
 21
345.1452110924003
 72
     1
 10
95.69210078788265
 20
345.1452110924003
 11
94.49930808571494
 21
345.1452110924003
 72
     1
 10
94.49930808571494
 20
345.1452110924003
 11
94.49930808571494
 21
347.4137553100878
 72
     1
 10
94.49930808571494
 20
347.4137553100878
 11
93.39566878614684
 21
347.4137553100878
 72
     2
 10
93.39566878614684
 20
346.4592323032617
 40
0.9545230068261503
 50
90.0
 51
109.3371432194309
 73
     1
 72
     2
 10
93.24899878804314
 20
346.8771872836446
 40
0.5115800601944143
 50
109.3371432194853
 51
151.4785267424253
 73
     1
 72
     2
 10
93.62635604612453
 20
346.6721158543056
 40
0.9410597353348789
 50
151.478526742364
 51
208.5214732576695
 73
     1
 72
     2
 10
93.24899878804314
 20
346.4670444249671
 40
0.5115800601960215
 50
208.5214732576866
 51
246.6277221118449
 73
     1
 72
     2
 10
93.40543882074624
 20
346.8290364436771
 40
0.9059297849852801
 50
246.6277221118183
 51
288.4480761180806
 73
     1
 72
     2
 10
92.98727108708434
 20
348.0825822197137
 40
2.227384008972773
 50
288.4480761181333
 51
301.9309089499394
 73
     1
 72
     1
 10
94.16532612910825
 20
346.1922315005639
 11
94.16532612910825
 21
345.3197144937606
 72
     2
 10
92.82939821199153
 20
349.984796799562
 40
4.852596863498825
 50
74.02000874166119
 51
84.84185523036365
 73
     0
 72
     2
 10
93.11825430672735
 20
346.7849062163404
 40
1.639695123940448
 50
84.8418552303238
 51
164.9381082228988
 73
     0
 72
     2
 10
92.69912646326574
 20
346.6721158543056
 40
1.205656168392988
 50
164.9381082229028
 51
195.0618917770946
 73
     0
 72
     2
 10
93.11825430672735
 20
346.5593254922707
 40
1.639695123940157
 50
195.0618917771031
 51
270.0
 73
     0
 72
     1
 10
93.11825430672735
 20
348.1990206162109
 11
96.50319982535603
 21
348.1990206162114
 72
     1
 10
96.50319982535603
 20
348.1990206162114
 11
96.50319982535603
 21
347.4137553100878
 97
       18
330
12A
330
1C0
330
1C1
330
1A9
330
1A8
330
18E
330
1A7
330
1A6
330
1C2
330
1A5
330
1C3
330
1A4
330
18F
330
129
330
12E
330
12D
330
12C
330
12B
 75
     1
 76
     0
 52
45.0
 41
0.1
 77
     0
 78
     1
 53
45.0
 43
0.0
 44
0.0
 45
-0.0707106781186548
 46
0.0707106781186548
 79
     0
 98
        1
 10
0.0
 20
0.0
  0
HATCH
  5
214
330
4E
100
AcDbEntity
  8
1
  6
Continuous
 62
     2
100
AcDbHatch
 10
0.0
 20
0.0
 30
0.0
210
0.0
220
0.0
230
1.0
  2
_USER
 70
     0
 71
     1
 91
        1
 92
        1
 93
       18
 72
     1
 10
96.50319982535603
 20
347.4137553100878
 11
95.69210078788265
 21
347.4137553100878
 72
     1
 10
95.69210078788265
 20
347.4137553100878
 11
95.69210078788265
 21
345.1452110924003
 72
     1
 10
95.69210078788265
 20
345.1452110924003
 11
94.49930808571494
 21
345.1452110924003
 72
     1
 10
94.49930808571494
 20
345.1452110924003
 11
94.49930808571494
 21
347.4137553100878
 72
     1
 10
94.49930808571494
 20
347.4137553100878
 11
93.39566878614684
 21
347.4137553100878
 72
     2
 10
93.39566878614684
 20
346.4592323032617
 40
0.9545230068261503
 50
90.0
 51
109.3371432194309
 73
     1
 72
     2
 10
93.24899878804314
 20
346.8771872836446
 40
0.5115800601944143
 50
109.3371432194853
 51
151.4785267424253
 73
     1
 72
     2
 10
93.62635604612453
 20
346.6721158543056
 40
0.9410597353348789
 50
151.478526742364
 51
208.5214732576695
 73
     1
 72
     2
 10
93.24899878804314
 20
346.4670444249671
 40
0.5115800601960215
 50
208.5214732576866
 51
246.6277221118449
 73
     1
 72
     2
 10
93.40543882074624
 20
346.8290364436771
 40
0.9059297849852801
 50
246.6277221118183
 51
288.4480761180806
 73
     1
 72
     2
 10
92.98727108708434
 20
348.0825822197137
 40
2.227384008972773
 50
288.4480761181333
 51
301.9309089499394
 73
     1
 72
     1
 10
94.16532612910825
 20
346.1922315005639
 11
94.16532612910825
 21
345.3197144937606
 72
     2
 10
92.82939821199153
 20
349.984796799562
 40
4.852596863498825
 50
74.02000874166119
 51
84.84185523036365
 73
     0
 72
     2
 10
93.11825430672735
 20
346.7849062163404
 40
1.639695123940448
 50
84.8418552303238
 51
164.9381082228988
 73
     0
 72
     2
 10
92.69912646326574
 20
346.6721158543056
 40
1.205656168392988
 50
164.9381082229028
 51
195.0618917770946
 73
     0
 72
     2
 10
93.11825430672735
 20
346.5593254922707
 40
1.639695123940157
 50
195.0618917771031
 51
270.0
 73
     0
 72
     1
 10
93.11825430672735
 20
348.1990206162109
 11
96.50319982535603
 21
348.1990206162114
 72
     1
 10
96.50319982535603
 20
348.1990206162114
 11
96.50319982535603
 21
347.4137553100878
 97
       18
330
12A
330
1C0
330
1C1
330
1A9
330
1A8
330
18E
330
1A7
330
1A6
330
1C2
330
1A5
330
1C3
330
1A4
330
18F
330
129
330
12E
330
12D
330
12C
330
12B
 75
     1
 76
     0
 52
45.0
 41
0.1
 77
     0
 78
     1
 53
45.0
 43
0.0
 44
0.0
 45
-0.0707106781186548
 46
0.0707106781186548
 79
     0
 98
        1
 10
0.0
 20
0.0
  0
HATCH
  5
215
330
4E
100
AcDbEntity
  8
1
  6
Continuous
 62
     2
100
AcDbHatch
 10
0.0
 20
0.0
 30
0.0
210
0.0
220
0.0
230
1.0
  2
_USER
 70
     0
 71
     1
 91
        1
 92
        1
 93
       14
 72
     2
 10
77.01555282747444
 20
346.5593254922707
 40
1.639695123940507
 50
84.84185523036236
 51
164.9381082228884
 73
     1
 72
     2
 10
76.59642498401163
 20
346.6721158543056
 40
1.205656168390929
 50
164.9381082228791
 51
195.0618917770948
 73
     1
 72
     2
 10
77.01555282747444
 20
346.7849062163404
 40
1.63969512393938
 50
195.0618917770886
 51
275.1581447696396
 73
     1
 72
     2
 10
76.72669673273853
 20
349.984796799562
 40
4.85259686349811
 50
275.158144769625
 51
285.9799912583529
 73
     1
 72
     1
 10
78.06262464985633
 20
345.3197144937612
 11
78.06262464985633
 21
346.1922315005644
 72
     2
 10
76.88456960783145
 20
348.0825822197143
 40
2.227384008972764
 50
58.06909105004111
 51
71.55192388186742
 73
     0
 72
     2
 10
77.30273734149225
 20
346.8290364436771
 40
0.9059297849849192
 50
71.55192388184209
 51
113.372277888129
 73
     0
 72
     2
 10
77.14629730879022
 20
346.4670444249671
 40
0.5115800601948034
 50
113.3722778881726
 51
151.4785267423044
 73
     0
 72
     2
 10
77.52365456687053
 20
346.6721158543056
 40
0.9410597353332545
 50
151.4785267422943
 51
208.5214732577331
 73
     0
 72
     2
 10
77.14629730879022
 20
346.8771872836446
 40
0.5115800601948517
 50
208.5214732576956
 51
246.6277221117996
 73
     0
 72
     2
 10
77.30273734149225
 20
346.515195264934
 40
0.9059297849853228
 50
246.627722111871
 51
288.4480761181465
 73
     0
 72
     2
 10
76.88456960783145
 20
345.2616494888974
 40
2.227384008973501
 50
288.4480761181326
 51
301.9309089499589
 73
     0
 72
     1
 10
78.06262464985633
 20
347.1520002080473
 11
78.06262464985633
 21
348.0245172148506
 72
     2
 10
76.72669673273853
 20
343.3594349090497
 40
4.852596863498095
 50
74.02000874164747
 51
84.84185523037509
 73
     1
 97
       14
330
1C8
330
1C9
330
1CA
330
1CB
330
190
330
1A1
330
1A0
330
19F
330
1CC
330
1CD
330
19E
330
1CE
330
191
330
19D
 75
     1
 76
     0
 52
45.0
 41
0.1
 77
     0
 78
     1
 53
45.0
 43
0.0
 44
0.0
 45
-0.0707106781186548
 46
0.0707106781186548
 79
     0
 98
        1
 10
0.0
 20
0.0
  0
HATCH
  5
216
330
4E
100
AcDbEntity
  8
1
  6
Continuous
 62
     2
100
AcDbHatch
 10
0.0
 20
0.0
 30
0.0
210
0.0
220
0.0
230
1.0
  2
_USER
 70
     0
 71
     1
 91
        1
 92
        1
 93
       14
 72
     2
 10
77.01555282747444
 20
346.5593254922707
 40
1.639695123940507
 50
84.84185523036236
 51
164.9381082228884
 73
     1
 72
     2
 10
76.59642498401163
 20
346.6721158543056
 40
1.205656168390929
 50
164.9381082228791
 51
195.0618917770948
 73
     1
 72
     2
 10
77.01555282747444
 20
346.7849062163404
 40
1.63969512393938
 50
195.0618917770886
 51
275.1581447696396
 73
     1
 72
     2
 10
76.72669673273853
 20
349.984796799562
 40
4.85259686349811
 50
275.158144769625
 51
285.9799912583529
 73
     1
 72
     1
 10
78.06262464985633
 20
345.3197144937612
 11
78.06262464985633
 21
346.1922315005644
 72
     2
 10
76.88456960783145
 20
348.0825822197143
 40
2.227384008972764
 50
58.06909105004111
 51
71.55192388186742
 73
     0
 72
     2
 10
77.30273734149225
 20
346.8290364436771
 40
0.9059297849849192
 50
71.55192388184209
 51
113.372277888129
 73
     0
 72
     2
 10
77.14629730879022
 20
346.4670444249671
 40
0.5115800601948034
 50
113.3722778881726
 51
151.4785267423044
 73
     0
 72
     2
 10
77.52365456687053
 20
346.6721158543056
 40
0.9410597353332545
 50
151.4785267422943
 51
208.5214732577331
 73
     0
 72
     2
 10
77.14629730879022
 20
346.8771872836446
 40
0.5115800601948517
 50
208.5214732576956
 51
246.6277221117996
 73
     0
 72
     2
 10
77.30273734149225
 20
346.515195264934
 40
0.9059297849853228
 50
246.627722111871
 51
288.4480761181465
 73
     0
 72
     2
 10
76.88456960783145
 20
345.2616494888974
 40
2.227384008973501
 50
288.4480761181326
 51
301.9309089499589
 73
     0
 72
     1
 10
78.06262464985633
 20
347.1520002080473
 11
78.06262464985633
 21
348.0245172148506
 72
     2
 10
76.72669673273853
 20
343.3594349090497
 40
4.852596863498095
 50
74.02000874164747
 51
84.84185523037509
 73
     1
 97
       14
330
1C8
330
1C9
330
1CA
330
1CB
330
190
330
1A1
330
1A0
330
19F
330
1CC
330
1CD
330
19E
330
1CE
330
191
330
19D
 75
     1
 76
     0
 52
45.0
 41
0.1
 77
     0
 78
     1
 53
45.0
 43
0.0
 44
0.0
 45
-0.0707106781186548
 46
0.0707106781186548
 79
     0
 98
        1
 10
0.0
 20
0.0
  0
ENDBLK
  5
50
330
4E
100
AcDbEntity
  8
0
100
AcDbBlockEnd
  0
BLOCK
  5
52
330
51
100
AcDbEntity
  8
0
100
AcDbBlockBegin
  2
_punkt
 70
     0
 10
193.900000234839
 20
337.851711092384
 30
0.0
  3
_punkt
  1

  0
LINE
  5
217
330
51
100
AcDbEntity
  8
1
  6
Continuous
 62
     2
100
AcDbLine
 10
193.900000234839
 20
337.851711092384
 30
0.0
 11
198.9000002348379
 21
337.851711092384
 31
0.0
  0
LINE
  5
218
330
51
100
AcDbEntity
  8
1
  6
Continuous
 62
     2
100
AcDbLine
 10
193.900000234839
 20
337.851711092384
 30
0.0
 11
193.900000234839
 21
332.8517110923839
 31
0.0
  0
ENDBLK
  5
53
330
51
100
AcDbEntity
  8
0
100
AcDbBlockEnd
  0
BLOCK
  5
57
330
54
100
AcDbEntity
  8
0
100
AcDbBlockBegin
  2
A4I_CS
 70
     0
 10
193.900000234839
 20
332.8517110923839
 30
0.0
  3
A4I_CS
  1

  0
INSERT
  5
55
330
54
100
AcDbEntity
  8
1
100
AcDbBlockReference
  2
_rahmen
 10
193.900000234839
 20
332.8517110923839
 30
0.0
  0
INSERT
  5
56
330
54
100
AcDbEntity
  8
1
100
AcDbBlockReference
  2
_punkt
 10
193.900000234839
 20
337.851711092384
 30
0.0
  0
ENDBLK
  5
58
330
54
100
AcDbEntity
  8
0
100
AcDbBlockEnd
  0
BLOCK
  5
5A
330
59
100
AcDbEntity
  8
0
100
AcDbBlockBegin
  2
PT_5___ST-select__2
 70
     0
 10
10.59999924150473
 20
393.2500006184841
 30
0.0
  3
PT_5___ST-select__2
  1

  0
LINE
  5
219
330
59
100
AcDbEntity
  8
0
  6
Continuous
 62
     7
100
AcDbLine
 10
13.17856261647229
 20
393.2500006184841
 30
0.0
 11
13.53007944409376
 21
393.2500006184841
 31
0.0
  0
LINE
  5
21A
330
59
100
AcDbEntity
  8
0
  6
Continuous
 62
     7
100
AcDbLine
 10
13.53007944409377
 20
410.7500006184841
 30
0.0
 11
13.53007944409376
 21
393.2500006184841
 31
0.0
  0
LINE
  5
21B
330
59
100
AcDbEntity
  8
0
  6
Continuous
 62
     7
100
AcDbLine
 10
10.59999924150473
 20
393.2500006184841
 30
0.0
 11
13.17856261647229
 21
393.2500006184841
 31
0.0
  0
LINE
  5
21C
330
59
100
AcDbEntity
  8
0
  6
Continuous
 62
     7
100
AcDbLine
 10
13.17856261647229
 20
410.7500006184841
 30
0.0
 11
13.17856261647229
 21
393.2500006184841
 31
0.0
  0
LINE
  5
21D
330
59
100
AcDbEntity
  8
0
  6
Continuous
 62
     7
100
AcDbLine
 10
10.59999924150473
 20
393.2500006184841
 30
0.0
 11
10.59999924150476
 21
410.7500006184841
 31
0.0
  0
LINE
  5
21E
330
59
100
AcDbEntity
  8
0
  6
Continuous
 62
     7
100
AcDbLine
 10
13.17856261647229
 20
410.7500006184841
 30
0.0
 11
13.53007944409377
 21
410.7500006184841
 31
0.0
  0
LINE
  5
21F
330
59
100
AcDbEntity
  8
0
  6
Continuous
 62
     7
100
AcDbLine
 10
13.53007944409377
 20
410.7500006184841
 30
0.0
 11
14.93906896590407
 21
410.7500006184841
 31
0.0
  0
LINE
  5
220
330
59
100
AcDbEntity
  8
0
  6
Continuous
 62
     7
100
AcDbLine
 10
19.553145997065
 20
393.2500006184841
 30
0.0
 11
19.553145997065
 21
410.7500006184841
 31
0.0
  0
LINE
  5
221
330
59
100
AcDbEntity
  8
0
  6
Continuous
 62
     7
100
AcDbLine
 10
14.94207204335997
 20
410.7500006184841
 30
0.0
 11
17.93167531963211
 21
410.7500006184841
 31
0.0
  0
LINE
  5
222
330
59
100
AcDbEntity
  8
0
  6
Continuous
 62
     7
100
AcDbLine
 10
17.93167531963211
 20
410.7500006184841
 30
0.0
 11
17.93167531963211
 21
393.2500006184841
 31
0.0
  0
LINE
  5
223
330
59
100
AcDbEntity
  8
0
  6
Continuous
 62
     7
100
AcDbLine
 10
14.94207204335997
 20
410.7500006184841
 30
0.0
 11
14.94207204336
 21
393.2500006184841
 31
0.0
  0
LINE
  5
224
330
59
100
AcDbEntity
  8
0
  6
Continuous
 62
     7
100
AcDbLine
 10
18.0594504397329
 20
393.2500006184841
 30
0.0
 11
18.0594504397329
 21
410.7500006184841
 31
0.0
  0
LINE
  5
225
330
59
100
AcDbEntity
  8
0
  6
Continuous
 62
     7
100
AcDbLine
 10
19.2904318473684
 20
410.7500006184841
 30
0.0
 11
19.2904318473685
 21
393.2500006184841
 31
0.0
  0
LINE
  5
226
330
59
100
AcDbEntity
  8
0
  6
Continuous
 62
     7
100
AcDbLine
 10
55.39999924150511
 20
410.7500006184841
 30
0.0
 11
55.39999924150511
 21
393.2500006184841
 31
0.0
  0
LINE
  5
227
330
59
100
AcDbEntity
  8
0
  6
Continuous
 62
     7
100
AcDbLine
 10
14.93906896590407
 20
393.2500006184841
 30
0.0
 11
14.93906896590407
 21
410.7500006184841
 31
0.0
  0
LINE
  5
228
330
59
100
AcDbEntity
  8
0
  6
Continuous
 62
     7
100
AcDbLine
 10
19.2904318473684
 20
410.7500006184841
 30
0.0
 11
19.553145997065
 21
410.7500006184841
 31
0.0
  0
LINE
  5
229
330
59
100
AcDbEntity
  8
0
  6
Continuous
 62
     7
100
AcDbLine
 10
19.553145997065
 20
410.7500006184841
 30
0.0
 11
55.39999924150511
 21
410.7500006184841
 31
0.0
  0
LINE
  5
22A
330
59
100
AcDbEntity
  8
0
  6
Continuous
 62
     7
100
AcDbLine
 10
14.93906896590407
 20
410.7500006184841
 30
0.0
 11
14.94207204335997
 21
410.7500006184841
 31
0.0
  0
LINE
  5
22B
330
59
100
AcDbEntity
  8
0
  6
Continuous
 62
     7
100
AcDbLine
 10
17.93167531963211
 20
410.7500006184841
 30
0.0
 11
18.0594504397329
 21
410.7500006184841
 31
0.0
  0
LINE
  5
22C
330
59
100
AcDbEntity
  8
0
  6
Continuous
 62
     7
100
AcDbLine
 10
18.0594504397329
 20
410.7500006184841
 30
0.0
 11
19.2904318473684
 21
410.7500006184841
 31
0.0
  0
LINE
  5
22D
330
59
100
AcDbEntity
  8
0
  6
Continuous
 62
     7
100
AcDbLine
 10
10.59999924150476
 20
410.7500006184841
 30
0.0
 11
13.17856261647229
 21
410.7500006184841
 31
0.0
  0
LINE
  5
22E
330
59
100
AcDbEntity
  8
0
  6
Continuous
 62
     7
100
AcDbLine
 10
55.39999924150511
 20
393.2500006184841
 30
0.0
 11
19.553145997065
 21
393.2500006184841
 31
0.0
  0
LINE
  5
22F
330
59
100
AcDbEntity
  8
0
  6
Continuous
 62
     7
100
AcDbLine
 10
19.2904318473685
 20
393.2500006184841
 30
0.0
 11
19.553145997065
 21
393.2500006184841
 31
0.0
  0
LINE
  5
230
330
59
100
AcDbEntity
  8
0
  6
Continuous
 62
     7
100
AcDbLine
 10
14.93906896590407
 20
393.2500006184841
 30
0.0
 11
14.94207204336
 21
393.2500006184841
 31
0.0
  0
LINE
  5
231
330
59
100
AcDbEntity
  8
0
  6
Continuous
 62
     7
100
AcDbLine
 10
17.93167531963211
 20
393.2500006184841
 30
0.0
 11
18.0594504397329
 21
393.2500006184841
 31
0.0
  0
LINE
  5
232
330
59
100
AcDbEntity
  8
0
  6
Continuous
 62
     7
100
AcDbLine
 10
14.94207204336
 20
393.2500006184841
 30
0.0
 11
17.93167531963211
 21
393.2500006184841
 31
0.0
  0
LINE
  5
233
330
59
100
AcDbEntity
  8
0
  6
Continuous
 62
     7
100
AcDbLine
 10
18.0594504397329
 20
393.2500006184841
 30
0.0
 11
19.2904318473685
 21
393.2500006184841
 31
0.0
  0
LINE
  5
234
330
59
100
AcDbEntity
  8
0
  6
Continuous
 62
     7
100
AcDbLine
 10
13.53007944409376
 20
393.2500006184841
 30
0.0
 11
14.93906896590407
 21
393.2500006184841
 31
0.0
  0
ENDBLK
  5
5B
330
59
100
AcDbEntity
  8
0
100
AcDbBlockEnd
  0
BLOCK
  5
5E
330
5C
100
AcDbEntity
  8
0
100
AcDbBlockBegin
  2
Drfsicht2
 70
     0
 10
32.9999999999999
 20
402.0000000000001
 30
0.0
  3
Drfsicht2
  1

  0
INSERT
  5
5D
330
5C
100
AcDbEntity
  8
0
100
AcDbBlockReference
  2
PT_5___ST-select__2
 10
10.59999924150473
 20
393.2500006184841
 30
0.0
  0
MTEXT
  5
235
330
5C
100
AcDbEntity
  8
1
 62
     6
100
AcDbMText
 10
33.0
 20
388.2499986184841
 30
0.0
 40
5.0
 41
0.0
 71
     2
 72
     1
  1
 
  7
CONVERTER_11
 73
     1
 44
1.32052821128451
  0
DIMENSION
  5
240
330
5C
100
AcDbEntity
  8
1
100
AcDbDimension
  2
*D17
 10
0.59999924150473
 20
393.2500006184841
 30
0.0
 11
-2.82500075849527
 21
401.290655793697
 31
0.0
 70
    32
  1
<>
 71
     5
 42
-1.0
 53
90.0
  3
ME10_DIM_10
100
AcDbAlignedDimension
 13
10.59999924150476
 23
410.7500006184841
 33
0.0
 14
10.59999924150473
 24
393.2500006184841
 34
0.0
 50
90.0
100
AcDbRotatedDimension
  0
ENDBLK
  5
5F
330
5C
100
AcDbEntity
  8
0
100
AcDbBlockEnd
  0
BLOCK
  5
61
330
60
100
AcDbEntity
  8
0
100
AcDbBlockBegin
  2
PT_5___ST-select__3
 70
     0
 10
127.89999894389
 20
446.7500015662842
 30
0.0
  3
PT_5___ST-select__3
  1

  0
LINE
  5
241
330
60
100
AcDbEntity
  8
0
  6
Continuous
 62
     7
100
AcDbLine
 10
163.7382024192598
 20
497.465943055573
 30
0.0
 11
164.0095663380267
 21
497.4432921368278
 31
0.0
  0
LINE
  5
242
330
60
100
AcDbEntity
  8
0
  6
Continuous
 62
     7
100
AcDbLine
 10
164.0095663380267
 20
497.4432921368278
 30
0.0
 11
163.7468521883302
 21
498.000866891981
 31
0.0
  0
LINE
  5
243
330
60
100
AcDbEntity
  8
0
  6
Continuous
 62
     7
100
AcDbLine
 10
172.6999989438913
 20
483.7034235662832
 30
0.0
 11
172.6999989438913
 21
456.2534235662843
 31
0.0
  0
LINE
  5
244
330
60
100
AcDbEntity
  8
0
  6
Continuous
 62
     7
100
AcDbLine
 10
172.6999989438913
 20
456.2534235662843
 30
0.0
 11
171.3999989438914
 21
456.2534235662843
 31
0.0
  0
LINE
  5
245
330
60
100
AcDbEntity
  8
0
  6
Continuous
 62
     7
100
AcDbLine
 10
170.0412826600668
 20
496.9398209424207
 30
0.0
 11
169.95227860298
 21
495.8735291072165
 31
0.0
  0
LINE
  5
246
330
60
100
AcDbEntity
  8
0
  6
Continuous
 62
     7
100
AcDbLine
 10
171.3999989438914
 20
483.7034235662832
 30
0.0
 11
171.3999989438914
 21
456.2534235662843
 31
0.0
  0
LINE
  5
247
330
60
100
AcDbEntity
  8
0
  6
Continuous
 62
     7
100
AcDbLine
 10
127.89999894389
 20
485.9175251814208
 30
0.0
 11
127.89999894389
 21
456.2534235662843
 31
0.0
  0
LINE
  5
248
330
60
100
AcDbEntity
  8
0
  6
Continuous
 62
     7
100
AcDbLine
 10
163.6491983621731
 20
496.3996512203692
 30
0.0
 11
163.7382024192598
 21
497.465943055573
 31
0.0
  0
LINE
  5
249
330
60
100
AcDbEntity
  8
0
  6
Continuous
 62
     7
100
AcDbLine
 10
129.1509300652869
 20
486.2527111651861
 30
0.0
 11
129.150930065287
 21
495.3206805837165
 31
0.0
  0
LINE
  5
24A
330
60
100
AcDbEntity
  8
0
  6
Continuous
 62
     7
100
AcDbLine
 10
127.89999894389
 20
485.9175251814208
 30
0.0
 11
129.1509300652869
 21
486.2527111651861
 31
0.0
  0
LINE
  5
24B
330
60
100
AcDbEntity
  8
0
  6
Continuous
 62
     7
100
AcDbLine
 10
170.1214355689228
 20
497.468776366312
 30
0.0
 11
169.7699187413014
 21
496.9624718611665
 31
0.0
  0
LINE
  5
24C
330
60
100
AcDbEntity
  8
0
  6
Continuous
 62
     7
100
AcDbLine
 10
172.6999989438905
 20
495.1822724929214
 30
0.0
 11
172.6999989438904
 21
497.1950648999506
 31
0.0
  0
LINE
  5
24D
330
60
100
AcDbEntity
  8
0
  6
Continuous
 62
     7
100
AcDbLine
 10
170.0499989438907
 20
456.2534235662843
 30
0.0
 11
170.0499989438906
 21
446.7500015662842
 31
0.0
  0
LINE
  5
24E
330
60
100
AcDbEntity
  8
0
  6
Continuous
 62
     7
100
AcDbLine
 10
166.4499989438907
 20
446.7500015662842
 30
0.0
 11
170.0499989438906
 21
446.7500015662842
 31
0.0
  0
LINE
  5
24F
330
60
100
AcDbEntity
  8
0
  6
Continuous
 62
     7
100
AcDbLine
 10
166.4499989438907
 20
454.4451725662842
 30
0.0
 11
164.5499989438907
 21
454.4451725662842
 31
0.0
  0
LINE
  5
250
330
60
100
AcDbEntity
  8
0
  6
Continuous
 62
     7
100
AcDbLine
 10
166.4499989438907
 20
456.2534235662843
 30
0.0
 11
166.4499989438907
 21
454.4451725662842
 31
0.0
  0
LINE
  5
251
330
60
100
AcDbEntity
  8
0
  6
Continuous
 62
     7
100
AcDbLine
 10
168.3609292194911
 20
496.0063600515197
 30
0.0
 11
168.3579261420352
 21
496.759218940216
 31
0.0
  0
LINE
  5
252
330
60
100
AcDbEntity
  8
0
  6
Continuous
 62
     7
100
AcDbLine
 10
166.4499989438907
 20
454.4451725662842
 30
0.0
 11
166.4499989438907
 21
446.7500015662842
 31
0.0
  0
LINE
  5
253
330
60
100
AcDbEntity
  8
0
  6
Continuous
 62
     7
100
AcDbLine
 10
165.2405477456622
 20
496.266820276066
 30
0.0
 11
163.6491983621731
 21
496.3996512203692
 31
0.0
  0
LINE
  5
254
330
60
100
AcDbEntity
  8
0
  6
Continuous
 62
     7
100
AcDbLine
 10
127.8999989438904
 20
497.1950648999506
 30
0.0
 11
127.8999989438904
 21
495.1822724929215
 31
0.0
  0
LINE
  5
255
330
60
100
AcDbEntity
  8
0
  6
Continuous
 62
     7
100
AcDbLine
 10
134.1499989438907
 20
456.2534235662843
 30
0.0
 11
134.1499989438907
 21
446.7500015662842
 31
0.0
  0
LINE
  5
256
330
60
100
AcDbEntity
  8
0
  6
Continuous
 62
     7
100
AcDbLine
 10
134.1499989438907
 20
446.7500015662842
 30
0.0
 11
130.5499989438907
 21
446.7500015662842
 31
0.0
  0
LINE
  5
257
330
60
100
AcDbEntity
  8
0
  6
Continuous
 62
     7
100
AcDbLine
 10
164.0499989438906
 20
454.4451725662842
 30
0.0
 11
160.4499989438907
 21
454.4451725662842
 31
0.0
  0
LINE
  5
258
330
60
100
AcDbEntity
  8
0
  6
Continuous
 62
     7
100
AcDbLine
 10
164.0499989438906
 20
456.2534235662843
 30
0.0
 11
164.0499989438906
 21
454.4451725662842
 31
0.0
  0
LINE
  5
259
330
60
100
AcDbEntity
  8
0
  6
Continuous
 62
     7
100
AcDbLine
 10
160.4499989438907
 20
456.2534235662843
 30
0.0
 11
160.4499989438907
 21
454.4451725662842
 31
0.0
  0
LINE
  5
25A
330
60
100
AcDbEntity
  8
0
  6
Continuous
 62
     7
100
AcDbLine
 10
140.1499989438908
 20
456.2534235662843
 30
0.0
 11
140.1499989438908
 21
454.4451725662842
 31
0.0
  0
LINE
  5
25B
330
60
100
AcDbEntity
  8
0
  6
Continuous
 62
     7
100
AcDbLine
 10
165.368322865763
 20
497.0087630255057
 30
0.0
 11
165.2405477456622
 21
496.266820276066
 31
0.0
  0
LINE
  5
25C
330
60
100
AcDbEntity
  8
0
  6
Continuous
 62
     7
100
AcDbLine
 10
164.5499989438907
 20
456.2534235662843
 30
0.0
 11
164.5499989438907
 21
454.4451725662842
 31
0.0
  0
LINE
  5
25D
330
60
100
AcDbEntity
  8
0
  6
Continuous
 62
     7
100
AcDbLine
 10
136.5499989438907
 20
456.2534235662843
 30
0.0
 11
136.5499989438907
 21
454.4451725662842
 31
0.0
  0
LINE
  5
25E
330
60
100
AcDbEntity
  8
0
  6
Continuous
 62
     7
100
AcDbLine
 10
136.5499989438907
 20
454.4451725662842
 30
0.0
 11
140.1499989438908
 21
454.4451725662842
 31
0.0
  0
LINE
  5
25F
330
60
100
AcDbEntity
  8
0
  6
Continuous
 62
     7
100
AcDbLine
 10
130.5499989438907
 20
456.2534235662843
 30
0.0
 11
130.5499989438907
 21
446.7500015662842
 31
0.0
  0
LINE
  5
260
330
60
100
AcDbEntity
  8
0
  6
Continuous
 62
     7
100
AcDbLine
 10
171.4490798224956
 20
486.2527079497957
 30
0.0
 11
171.4490798224956
 21
495.3206792945791
 31
0.0
  0
LINE
  5
261
330
60
100
AcDbEntity
  8
0
  6
Continuous
 62
     7
100
AcDbLine
 10
172.6999989438913
 20
485.917525181421
 30
0.0
 11
172.6999989438913
 21
483.7034235662832
 31
0.0
  0
LINE
  5
262
330
60
100
AcDbEntity
  8
0
  6
Continuous
 62
     7
100
AcDbLine
 10
172.6999989438913
 20
483.7034235662832
 30
0.0
 11
171.3999989438914
 21
483.7034235662832
 31
0.0
  0
LINE
  5
263
330
60
100
AcDbEntity
  8
0
  6
Continuous
 62
     7
100
AcDbLine
 10
170.0412826600668
 20
496.9398209424207
 30
0.0
 11
169.7699187413014
 21
496.9624718611665
 31
0.0
  0
LINE
  5
264
330
60
100
AcDbEntity
  8
0
  6
Continuous
 62
     7
100
AcDbLine
 10
172.6999989438913
 20
485.917525181421
 30
0.0
 11
171.4490798224956
 21
486.2527079497957
 31
0.0
  0
LINE
  5
265
330
60
100
AcDbEntity
  8
0
  6
Continuous
 62
     7
100
AcDbLine
 10
171.3999989438914
 20
456.2534235662843
 30
0.0
 11
127.89999894389
 21
456.2534235662843
 31
0.0
  0
LINE
  5
266
330
60
100
AcDbEntity
  8
0
  6
Continuous
 62
     7
100
AcDbLine
 10
169.95227860298
 20
495.8735291072165
 30
0.0
 11
168.3609292194911
 21
496.0063600515197
 31
0.0
  0
LINE
  5
267
330
60
100
AcDbEntity
  8
0
  6
Continuous
 62
     7
100
AcDbLine
 10
168.3579261420352
 20
496.759218940216
 30
0.0
 11
165.368322865763
 21
497.0087630255057
 31
0.0
  0
ARC
  5
268
330
60
100
AcDbEntity
  8
0
  6
Continuous
 62
     7
100
AcDbCircle
 10
150.2999989438921
 20
298.4534235662806
 30
0.0
 40
198.0000000000025
100
AcDbArc
 50
83.50414623866277
 51
83.86833757086956
  0
ARC
  5
269
330
60
100
AcDbEntity
  8
0
  6
Continuous
 62
     7
100
AcDbCircle
 10
150.2999989438856
 20
298.4534235662803
 30
0.0
 40
198.0000000000025
100
AcDbArc
 50
96.13165893667748
 51
96.4958537613363
  0
ARC
  5
26A
330
60
100
AcDbEntity
  8
0
  6
Continuous
 62
     7
100
AcDbCircle
 10
150.2999989438879
 20
298.453423566281
 30
0.0
 40
200.0000000000027
100
AcDbArc
 50
83.56938031899465
 51
84.31223955799251
  0
ARC
  5
26B
330
60
100
AcDbEntity
  8
0
  6
Continuous
 62
     7
100
AcDbCircle
 10
150.2999989438901
 20
298.4534235662808
 30
0.0
 40
200.0000000000026
100
AcDbArc
 50
86.14485207972325
 51
96.43061968100454
  0
ENDBLK
  5
62
330
60
100
AcDbEntity
  8
0
100
AcDbBlockEnd
  0
BLOCK
  5
65
330
63
100
AcDbEntity
  8
0
100
AcDbBlockBegin
  2
Rckans1
 70
     0
 10
150.2999981853952
 20
472.5458693014381
 30
0.0
  3
Rckans1
  1

  0
INSERT
  5
64
330
63
100
AcDbEntity
  8
0
100
AcDbBlockReference
  2
PT_5___ST-select__3
 10
127.89999894389
 20
446.7500015662842
 30
0.0
  0
MTEXT
  5
26C
330
63
100
AcDbEntity
  8
1
 62
     6
100
AcDbMText
 10
150.2999981853952
 20
441.7500013815162
 30
0.0
 40
5.0
 41
0.0
 71
     2
 72
     1
  1
 
  7
CONVERTER_11
 73
     1
 44
1.32052821128451
  0
ENDBLK
  5
66
330
63
100
AcDbEntity
  8
0
100
AcDbBlockEnd
  0
BLOCK
  5
68
330
67
100
AcDbEntity
  8
0
100
AcDbBlockBegin
  2
PT_5___ST-select__4
 70
     0
 10
10.59999924150376
 20
446.7500015662842
 30
0.0
  3
PT_5___ST-select__4
  1

  0
LINE
  5
26D
330
67
100
AcDbEntity
  8
0
  6
Continuous
 62
     7
100
AcDbLine
 10
10.59999924150376
 20
485.917525181421
 30
0.0
 11
10.59999924150376
 21
483.7034235662832
 31
0.0
  0
LINE
  5
26E
330
67
100
AcDbEntity
  8
0
  6
Continuous
 62
     7
100
AcDbLine
 10
11.85091836289943
 20
486.2527079497957
 30
0.0
 11
11.85091836289944
 21
495.3206792945791
 31
0.0
  0
LINE
  5
26F
330
67
100
AcDbEntity
  8
0
  6
Continuous
 62
     7
100
AcDbLine
 10
10.59999924150463
 20
495.1822724929214
 30
0.0
 11
10.59999924150468
 21
497.1950648999506
 31
0.0
  0
LINE
  5
270
330
67
100
AcDbEntity
  8
0
  6
Continuous
 62
     7
100
AcDbLine
 10
10.59999924150376
 20
483.7034235662832
 30
0.0
 11
10.59999924150376
 21
456.2534235662843
 31
0.0
  0
LINE
  5
271
330
67
100
AcDbEntity
  8
0
  6
Continuous
 62
     7
100
AcDbLine
 10
10.59999924150376
 20
483.7034235662832
 30
0.0
 11
11.89999924150374
 21
483.7034235662832
 31
0.0
  0
LINE
  5
272
330
67
100
AcDbEntity
  8
0
  6
Continuous
 62
     7
100
AcDbLine
 10
11.89999924150374
 20
483.7034235662832
 30
0.0
 11
11.89999924150374
 21
456.2534235662843
 31
0.0
  0
LINE
  5
273
330
67
100
AcDbEntity
  8
0
  6
Continuous
 62
     7
100
AcDbLine
 10
10.59999924150376
 20
485.917525181421
 30
0.0
 11
11.85091836289943
 21
486.2527079497957
 31
0.0
  0
LINE
  5
274
330
67
100
AcDbEntity
  8
0
  6
Continuous
 62
     7
100
AcDbLine
 10
13.17856261647225
 20
497.4687763663119
 30
0.0
 11
13.53007944409372
 21
496.9624718611665
 31
0.0
  0
LINE
  5
275
330
67
100
AcDbEntity
  8
0
  6
Continuous
 62
     7
100
AcDbLine
 10
11.89999924150374
 20
456.2534235662843
 30
0.0
 11
43.14999924150435
 21
456.2534235662843
 31
0.0
  0
LINE
  5
276
330
67
100
AcDbEntity
  8
0
  6
Continuous
 62
     7
100
AcDbLine
 10
55.39999924150506
 20
456.2534235662843
 30
0.0
 11
55.39999924150505
 21
485.9175251814208
 31
0.0
  0
LINE
  5
277
330
67
100
AcDbEntity
  8
0
  6
Continuous
 62
     7
100
AcDbLine
 10
46.74999924150435
 20
456.2534235662843
 30
0.0
 11
55.39999924150506
 21
456.2534235662843
 31
0.0
  0
LINE
  5
278
330
67
100
AcDbEntity
  8
0
  6
Continuous
 62
     7
100
AcDbLine
 10
52.74999924150441
 20
456.2534235662843
 30
0.0
 11
52.74999924150441
 21
446.7500015662842
 31
0.0
  0
LINE
  5
279
330
67
100
AcDbEntity
  8
0
  6
Continuous
 62
     7
100
AcDbLine
 10
52.74999924150441
 20
446.7500015662842
 30
0.0
 11
49.14999924150441
 21
446.7500015662842
 31
0.0
  0
LINE
  5
27A
330
67
100
AcDbEntity
  8
0
  6
Continuous
 62
     7
100
AcDbLine
 10
49.14999924150441
 20
456.2534235662843
 30
0.0
 11
49.14999924150441
 21
446.7500015662842
 31
0.0
  0
LINE
  5
27B
330
67
100
AcDbEntity
  8
0
  6
Continuous
 62
     7
100
AcDbLine
 10
55.39999924150505
 20
485.9175251814208
 30
0.0
 11
54.14906812010818
 21
486.2527111651861
 31
0.0
  0
LINE
  5
27C
330
67
100
AcDbEntity
  8
0
  6
Continuous
 62
     7
100
AcDbLine
 10
54.14906812010818
 20
486.2527111651861
 30
0.0
 11
54.14906812010813
 21
495.3206805837165
 31
0.0
  0
LINE
  5
27D
330
67
100
AcDbEntity
  8
0
  6
Continuous
 62
     7
100
AcDbLine
 10
55.39999924150468
 20
497.1950648999506
 30
0.0
 11
55.39999924150472
 21
495.1822724929215
 31
0.0
  0
LINE
  5
27E
330
67
100
AcDbEntity
  8
0
  6
Continuous
 62
     7
100
AcDbLine
 10
18.74999924150442
 20
454.4451725662842
 30
0.0
 11
16.84999924150445
 21
454.4451725662842
 31
0.0
  0
LINE
  5
27F
330
67
100
AcDbEntity
  8
0
  6
Continuous
 62
     7
100
AcDbLine
 10
22.84999924150445
 20
454.4451725662842
 30
0.0
 11
19.24999924150446
 21
454.4451725662842
 31
0.0
  0
LINE
  5
280
330
67
100
AcDbEntity
  8
0
  6
Continuous
 62
     7
100
AcDbLine
 10
43.14999924150435
 20
456.2534235662843
 30
0.0
 11
43.14999924150435
 21
454.4451725662842
 31
0.0
  0
LINE
  5
281
330
67
100
AcDbEntity
  8
0
  6
Continuous
 62
     7
100
AcDbLine
 10
46.74999924150435
 20
456.2534235662843
 30
0.0
 11
46.74999924150435
 21
454.4451725662842
 31
0.0
  0
LINE
  5
282
330
67
100
AcDbEntity
  8
0
  6
Continuous
 62
     7
100
AcDbLine
 10
43.14999924150435
 20
456.2534235662843
 30
0.0
 11
46.74999924150435
 21
456.2534235662843
 31
0.0
  0
LINE
  5
283
330
67
100
AcDbEntity
  8
0
  6
Continuous
 62
     7
100
AcDbLine
 10
19.65079982322196
 20
496.3996512203692
 30
0.0
 11
19.56179576613527
 21
497.465943055573
 31
0.0
  0
LINE
  5
284
330
67
100
AcDbEntity
  8
0
  6
Continuous
 62
     7
100
AcDbLine
 10
19.56179576613527
 20
497.465943055573
 30
0.0
 11
19.2904318473684
 21
497.4432921368278
 31
0.0
  0
LINE
  5
285
330
67
100
AcDbEntity
  8
0
  6
Continuous
 62
     7
100
AcDbLine
 10
22.84999924150445
 20
456.2534235662843
 30
0.0
 11
22.84999924150445
 21
454.4451725662842
 31
0.0
  0
LINE
  5
286
330
67
100
AcDbEntity
  8
0
  6
Continuous
 62
     7
100
AcDbLine
 10
19.24999924150446
 20
456.2534235662843
 30
0.0
 11
19.24999924150446
 21
454.4451725662842
 31
0.0
  0
LINE
  5
287
330
67
100
AcDbEntity
  8
0
  6
Continuous
 62
     7
100
AcDbLine
 10
18.74999924150442
 20
456.2534235662843
 30
0.0
 11
18.74999924150442
 21
454.4451725662842
 31
0.0
  0
LINE
  5
288
330
67
100
AcDbEntity
  8
0
  6
Continuous
 62
     7
100
AcDbLine
 10
19.2904318473684
 20
497.4432921368278
 30
0.0
 11
19.55314599706492
 21
498.0008668919809
 31
0.0
  0
LINE
  5
289
330
67
100
AcDbEntity
  8
0
  6
Continuous
 62
     7
100
AcDbLine
 10
18.0594504397329
 20
496.266820276066
 30
0.0
 11
19.65079982322196
 21
496.3996512203692
 31
0.0
  0
LINE
  5
28A
330
67
100
AcDbEntity
  8
0
  6
Continuous
 62
     7
100
AcDbLine
 10
17.9316753196321
 20
497.0087630255056
 30
0.0
 11
18.0594504397329
 21
496.266820276066
 31
0.0
  0
LINE
  5
28B
330
67
100
AcDbEntity
  8
0
  6
Continuous
 62
     7
100
AcDbLine
 10
13.2587155253283
 20
496.9398209424209
 30
0.0
 11
13.53007944409372
 21
496.9624718611665
 31
0.0
  0
LINE
  5
28C
330
67
100
AcDbEntity
  8
0
  6
Continuous
 62
     7
100
AcDbLine
 10
13.2587155253283
 20
496.9398209424209
 30
0.0
 11
13.34771958241505
 21
495.8735291072165
 31
0.0
  0
LINE
  5
28D
330
67
100
AcDbEntity
  8
0
  6
Continuous
 62
     7
100
AcDbLine
 10
13.34771958241505
 20
495.8735291072165
 30
0.0
 11
14.93906896590403
 21
496.0063600515197
 31
0.0
  0
LINE
  5
28E
330
67
100
AcDbEntity
  8
0
  6
Continuous
 62
     7
100
AcDbLine
 10
14.93906896590403
 20
496.0063600515197
 30
0.0
 11
14.94207204335996
 21
496.759218940216
 31
0.0
  0
LINE
  5
28F
330
67
100
AcDbEntity
  8
0
  6
Continuous
 62
     7
100
AcDbLine
 10
16.84999924150445
 20
456.2534235662843
 30
0.0
 11
16.84999924150445
 21
454.4451725662842
 31
0.0
  0
LINE
  5
290
330
67
100
AcDbEntity
  8
0
  6
Continuous
 62
     7
100
AcDbLine
 10
13.24999924150446
 20
446.7500015662842
 30
0.0
 11
16.84999924150445
 21
446.7500015662842
 31
0.0
  0
LINE
  5
291
330
67
100
AcDbEntity
  8
0
  6
Continuous
 62
     7
100
AcDbLine
 10
13.2499992415044
 20
456.2534235662843
 30
0.0
 11
13.24999924150446
 21
446.7500015662842
 31
0.0
  0
LINE
  5
292
330
67
100
AcDbEntity
  8
0
  6
Continuous
 62
     7
100
AcDbLine
 10
16.84999924150445
 20
454.4451725662842
 30
0.0
 11
16.84999924150445
 21
446.7500015662842
 31
0.0
  0
LINE
  5
293
330
67
100
AcDbEntity
  8
0
  6
Continuous
 62
     7
100
AcDbLine
 10
14.94207204335996
 20
496.759218940216
 30
0.0
 11
17.9316753196321
 21
497.0087630255056
 31
0.0
  0
LINE
  5
294
330
67
100
AcDbEntity
  8
0
  6
Continuous
 62
     7
100
AcDbLine
 10
10.59999924150376
 20
456.2534235662843
 30
0.0
 11
11.89999924150374
 21
456.2534235662843
 31
0.0
  0
LINE
  5
295
330
67
100
AcDbEntity
  8
0
  6
Continuous
 62
     7
100
AcDbLine
 10
43.14999924150435
 20
454.4451725662842
 30
0.0
 11
46.74999924150435
 21
454.4451725662842
 31
0.0
  0
ARC
  5
296
330
67
100
AcDbEntity
  8
0
  6
Continuous
 62
     7
100
AcDbCircle
 10
32.99999924150298
 20
298.4534235662806
 30
0.0
 40
198.0000000000025
100
AcDbArc
 50
96.13166242913047
 51
96.49585376133722
  0
ARC
  5
297
330
67
100
AcDbEntity
  8
0
  6
Continuous
 62
     7
100
AcDbCircle
 10
32.99999924150919
 20
298.4534235662803
 30
0.0
 40
198.0000000000026
100
AcDbArc
 50
83.50414623866361
 51
83.86834106332243
  0
ARC
  5
298
330
67
100
AcDbEntity
  8
0
  6
Continuous
 62
     7
100
AcDbCircle
 10
32.99999924150497
 20
298.4534235662808
 30
0.0
 40
200.0000000000026
100
AcDbArc
 50
95.68776044200688
 51
96.43061968100473
  0
ARC
  5
299
330
67
100
AcDbEntity
  8
0
  6
Continuous
 62
     7
100
AcDbCircle
 10
32.99999924150497
 20
298.4534235662808
 30
0.0
 40
200.0000000000026
100
AcDbArc
 50
83.56938031899544
 51
93.85514792027675
  0
ENDBLK
  5
69
330
67
100
AcDbEntity
  8
0
100
AcDbBlockEnd
  0
BLOCK
  5
6C
330
6A
100
AcDbEntity
  8
0
100
AcDbBlockBegin
  2
Vordans2
 70
     0
 10
32.99999999999986
 20
472.5458693014381
 30
0.0
  3
Vordans2
  1

  0
INSERT
  5
6B
330
6A
100
AcDbEntity
  8
0
100
AcDbBlockReference
  2
PT_5___ST-select__4
 10
10.59999924150376
 20
446.7500015662842
 30
0.0
  0
LINE
  5
29A
330
6A
100
AcDbEntity
  8
1
  6
Continuous
 62
     2
100
AcDbLine
 10
34.51977921117749
 20
498.4476491550332
 30
0.0
 11
18.51977921117749
 21
498.4476491550332
 31
0.0
  0
MTEXT
  5
29B
330
6A
100
AcDbEntity
  8
1
 62
     6
100
AcDbMText
 10
32.99999999999989
 20
441.7500013815162
 30
0.0
 40
5.0
 41
0.0
 71
     2
 72
     1
  1
 
  7
CONVERTER_11
 73
     1
 44
1.32052821128451
  0
DIMENSION
  5
2A6
330
6A
100
AcDbEntity
  8
1
100
AcDbDimension
  2
*D18
 10
10.59999924150376
 20
436.723450887153
 30
0.0
 11
34.2593397083552
 21
440.148450887153
 31
0.0
 70
    32
  1
<>
 71
     5
 42
-1.0
 53
0.00013888888889
  3
ME10_DIM_11
100
AcDbAlignedDimension
 13
55.39999924150506
 23
456.2534235662843
 33
0.0
 14
10.59999924150376
 24
456.2534235662843
 34
0.0
100
AcDbRotatedDimension
  0
DIMENSION
  5
2B1
330
6A
100
AcDbEntity
  8
1
100
AcDbDimension
  2
*D19
 10
1.89999924150373
 20
498.4476491550332
 30
0.0
 11
-1.52500075849627
 21
476.313987761226
 31
0.0
 70
    32
  1
<>
 71
     5
 42
-1.0
 53
90.0
  3
ME10_DIM_12
100
AcDbAlignedDimension
 13
11.89999924150374
 23
456.2534235662843
 33
0.0
 14
18.51977921117749
 24
498.4476491550332
 34
0.0
 50
90.0
100
AcDbRotatedDimension
  0
DIMENSION
  5
2BC
330
6A
100
AcDbEntity
  8
1
100
AcDbDimension
  2
*D20
 10
-6.10000075849626
 20
446.7500015662842
 30
0.0
 11
-9.52500075849627
 21
476.313987761226
 31
0.0
 70
    32
  1
<>
 71
     5
 42
-1.0
 53
90.0
  3
ME10_DIM_13
100
AcDbAlignedDimension
 13
18.51977921117749
 23
498.4476491550332
 33
0.0
 14
16.84999924150445
 24
446.7500015662842
 34
0.0
 50
90.0
100
AcDbRotatedDimension
  0
ENDBLK
  5
6D
330
6A
100
AcDbEntity
  8
0
100
AcDbBlockEnd
  0
BLOCK
  5
6F
330
6E
100
AcDbEntity
  8
0
100
AcDbBlockBegin
  2
PT_5___ST-select__5
 70
     0
 10
-64.89999847421353
 20
446.7500015662847
 30
0.0
  3
PT_5___ST-select__5
  1

  0
LINE
  5
2BD
330
6E
100
AcDbEntity
  8
0
  6
Continuous
 62
     7
100
AcDbLine
 10
-64.89999847421353
 20
497.195064899951
 30
0.0
 11
-47.39999847421353
 21
497.195064899951
 31
0.0
  0
LINE
  5
2BE
330
6E
100
AcDbEntity
  8
0
  6
Continuous
 62
     7
100
AcDbLine
 10
-64.89999847421353
 20
486.2527111651866
 30
0.0
 11
-47.39999847421353
 21
486.2527111651866
 31
0.0
  0
LINE
  5
2BF
330
6E
100
AcDbEntity
  8
0
  6
Continuous
 62
     7
100
AcDbLine
 10
-47.39999847421353
 20
485.9175251814213
 30
0.0
 11
-64.89999847421353
 21
485.9175251814213
 31
0.0
  0
LINE
  5
2C0
330
6E
100
AcDbEntity
  8
0
  6
Continuous
 62
     7
100
AcDbLine
 10
-64.89999847421353
 20
495.182272492922
 30
0.0
 11
-47.39999847421353
 21
495.182272492922
 31
0.0
  0
LINE
  5
2C1
330
6E
100
AcDbEntity
  8
0
  6
Continuous
 62
     7
100
AcDbLine
 10
-47.39999847421353
 20
497.195064899951
 30
0.0
 11
-47.39999847421353
 21
495.182272492922
 31
0.0
  0
LINE
  5
2C2
330
6E
100
AcDbEntity
  8
0
  6
Continuous
 62
     7
100
AcDbLine
 10
-54.89999847421353
 20
483.703423565698
 30
0.0
 11
-54.89999847421353
 21
461.127860657309
 31
0.0
  0
LINE
  5
2C3
330
6E
100
AcDbEntity
  8
0
  6
Continuous
 62
     7
100
AcDbLine
 10
-54.44999847421352
 20
459.9034235662847
 30
0.0
 11
-56.14999847421342
 21
459.9034235662847
 31
0.0
  0
LINE
  5
2C4
330
6E
100
AcDbEntity
  8
0
  6
Continuous
 62
     7
100
AcDbLine
 10
-56.14999847421342
 20
459.9034235662847
 30
0.0
 11
-56.29999847421351
 21
459.9034235662847
 31
0.0
  0
LINE
  5
2C5
330
6E
100
AcDbEntity
  8
0
  6
Continuous
 62
     7
100
AcDbLine
 10
-62.14999847421353
 20
456.2534235662847
 30
0.0
 11
-62.14999847421353
 21
454.4451725662847
 31
0.0
  0
LINE
  5
2C6
330
6E
100
AcDbEntity
  8
0
  6
Continuous
 62
     7
100
AcDbLine
 10
-60.54999847421351
 20
456.2534235662847
 30
0.0
 11
-60.54999847421351
 21
446.7500015662847
 31
0.0
  0
LINE
  5
2C7
330
6E
100
AcDbEntity
  8
0
  6
Continuous
 62
     7
100
AcDbLine
 10
-61.34999847421352
 20
456.2534235662847
 30
0.0
 11
-61.34999847421352
 21
454.4451725662847
 31
0.0
  0
LINE
  5
2C8
330
6E
100
AcDbEntity
  8
0
  6
Continuous
 62
     7
100
AcDbLine
 10
-62.14999847421353
 20
454.4451725662847
 30
0.0
 11
-61.34999847421352
 21
454.4451725662847
 31
0.0
  0
LINE
  5
2C9
330
6E
100
AcDbEntity
  8
0
  6
Continuous
 62
     7
100
AcDbLine
 10
-56.14999847421342
 20
454.4451725662847
 30
0.0
 11
-56.94999847421352
 21
454.4451725662847
 31
0.0
  0
LINE
  5
2CA
330
6E
100
AcDbEntity
  8
0
  6
Continuous
 62
     7
100
AcDbLine
 10
-56.29999847421351
 20
459.9034235662847
 30
0.0
 11
-56.29999847421351
 21
456.2534235662847
 31
0.0
  0
LINE
  5
2CB
330
6E
100
AcDbEntity
  8
0
  6
Continuous
 62
     7
100
AcDbLine
 10
-56.29999847421351
 20
461.1034235662847
 30
0.0
 11
-56.29999847421351
 21
459.9034235662847
 31
0.0
  0
LINE
  5
2CC
330
6E
100
AcDbEntity
  8
0
  6
Continuous
 62
     7
100
AcDbLine
 10
-64.89999847421353
 20
456.2534235662847
 30
0.0
 11
-56.29999847421351
 21
456.2534235662847
 31
0.0
  0
LINE
  5
2CD
330
6E
100
AcDbEntity
  8
0
  6
Continuous
 62
     7
100
AcDbLine
 10
-64.89999847421353
 20
497.195064899951
 30
0.0
 11
-64.89999847421353
 21
495.182272492922
 31
0.0
  0
LINE
  5
2CE
330
6E
100
AcDbEntity
  8
0
  6
Continuous
 62
     7
100
AcDbLine
 10
-64.89999847421353
 20
485.9175251814213
 30
0.0
 11
-64.89999847421353
 21
456.2534235662847
 31
0.0
  0
LINE
  5
2CF
330
6E
100
AcDbEntity
  8
0
  6
Continuous
 62
     7
100
AcDbLine
 10
-56.14999847421342
 20
459.9034235662847
 30
0.0
 11
-56.14999847421342
 21
454.4451725662847
 31
0.0
  0
LINE
  5
2D0
330
6E
100
AcDbEntity
  8
0
  6
Continuous
 62
     7
100
AcDbLine
 10
-47.39999847421353
 20
485.9175251814213
 30
0.0
 11
-47.39999847421353
 21
486.2527111651866
 31
0.0
  0
LINE
  5
2D1
330
6E
100
AcDbEntity
  8
0
  6
Continuous
 62
     7
100
AcDbLine
 10
-47.39999847421353
 20
498.4534235662837
 30
0.0
 11
-47.39999847421353
 21
497.195064899951
 31
0.0
  0
LINE
  5
2D2
330
6E
100
AcDbEntity
  8
0
  6
Continuous
 62
     7
100
AcDbLine
 10
-53.59999847421352
 20
483.6807319814072
 30
0.0
 11
-54.89999847421353
 21
483.703423565698
 31
0.0
  0
LINE
  5
2D3
330
6E
100
AcDbEntity
  8
0
  6
Continuous
 62
     7
100
AcDbLine
 10
-61.34999847421352
 20
454.4451725662847
 30
0.0
 11
-61.34999847421352
 21
446.7500015662847
 31
0.0
  0
LINE
  5
2D4
330
6E
100
AcDbEntity
  8
0
  6
Continuous
 62
     7
100
AcDbLine
 10
-62.14999847421353
 20
446.7500015662847
 30
0.0
 11
-61.34999847421352
 21
446.7500015662847
 31
0.0
  0
LINE
  5
2D5
330
6E
100
AcDbEntity
  8
0
  6
Continuous
 62
     7
100
AcDbLine
 10
-62.14999847421353
 20
454.4451725662847
 30
0.0
 11
-62.14999847421353
 21
446.7500015662847
 31
0.0
  0
LINE
  5
2D6
330
6E
100
AcDbEntity
  8
0
  6
Continuous
 62
     7
100
AcDbLine
 10
-60.54999847421351
 20
446.7500015662847
 30
0.0
 11
-61.34999847421352
 21
446.7500015662847
 31
0.0
  0
LINE
  5
2D7
330
6E
100
AcDbEntity
  8
0
  6
Continuous
 62
     7
100
AcDbLine
 10
-64.89999847421353
 20
485.9175251814213
 30
0.0
 11
-64.89999847421353
 21
486.2527111651866
 31
0.0
  0
LINE
  5
2D8
330
6E
100
AcDbEntity
  8
0
  6
Continuous
 62
     7
100
AcDbLine
 10
-56.94999847421352
 20
456.2534235662847
 30
0.0
 11
-56.94999847421352
 21
454.4451725662847
 31
0.0
  0
LINE
  5
2D9
330
6E
100
AcDbEntity
  8
0
  6
Continuous
 62
     7
100
AcDbLine
 10
-64.89999847421353
 20
498.4534235662837
 30
0.0
 11
-64.89999847421353
 21
497.195064899951
 31
0.0
  0
LINE
  5
2DA
330
6E
100
AcDbEntity
  8
0
  6
Continuous
 62
     7
100
AcDbLine
 10
-64.89999847421353
 20
486.2527111651866
 30
0.0
 11
-64.89999847421353
 21
495.182272492922
 31
0.0
  0
LINE
  5
2DB
330
6E
100
AcDbEntity
  8
0
  6
Continuous
 62
     7
100
AcDbLine
 10
-64.89999847421353
 20
498.4534235662837
 30
0.0
 11
-47.39999847421353
 21
498.4534235662837
 31
0.0
  0
LINE
  5
2DC
330
6E
100
AcDbEntity
  8
0
  6
Continuous
 62
     7
100
AcDbLine
 10
-50.94999847421352
 20
454.4451725662847
 30
0.0
 11
-50.94999847421352
 21
446.7500015662847
 31
0.0
  0
LINE
  5
2DD
330
6E
100
AcDbEntity
  8
0
  6
Continuous
 62
     7
100
AcDbLine
 10
-51.74999847421341
 20
446.7500015662847
 30
0.0
 11
-50.94999847421352
 21
446.7500015662847
 31
0.0
  0
LINE
  5
2DE
330
6E
100
AcDbEntity
  8
0
  6
Continuous
 62
     7
100
AcDbLine
 10
-51.74999847421353
 20
454.4451725662847
 30
0.0
 11
-51.74999847421341
 21
446.7500015662847
 31
0.0
  0
LINE
  5
2DF
330
6E
100
AcDbEntity
  8
0
  6
Continuous
 62
     7
100
AcDbLine
 10
-50.14999847421353
 20
456.2534235662847
 30
0.0
 11
-50.14999847421353
 21
446.7500015662847
 31
0.0
  0
LINE
  5
2E0
330
6E
100
AcDbEntity
  8
0
  6
Continuous
 62
     7
100
AcDbLine
 10
-50.14999847421353
 20
446.7500015662847
 30
0.0
 11
-50.94999847421352
 21
446.7500015662847
 31
0.0
  0
LINE
  5
2E1
330
6E
100
AcDbEntity
  8
0
  6
Continuous
 62
     7
100
AcDbLine
 10
-51.74999847421353
 20
454.4451725662847
 30
0.0
 11
-50.94999847421352
 21
454.4451725662847
 31
0.0
  0
LINE
  5
2E2
330
6E
100
AcDbEntity
  8
0
  6
Continuous
 62
     7
100
AcDbLine
 10
-51.74999847421353
 20
456.2534235662847
 30
0.0
 11
-51.74999847421353
 21
454.4451725662847
 31
0.0
  0
LINE
  5
2E3
330
6E
100
AcDbEntity
  8
0
  6
Continuous
 62
     7
100
AcDbLine
 10
-50.94999847421352
 20
456.2534235662847
 30
0.0
 11
-50.94999847421352
 21
454.4451725662847
 31
0.0
  0
LINE
  5
2E4
330
6E
100
AcDbEntity
  8
0
  6
Continuous
 62
     7
100
AcDbLine
 10
-52.19999847421352
 20
459.9034235662847
 30
0.0
 11
-54.44999847421352
 21
459.9034235662847
 31
0.0
  0
LINE
  5
2E5
330
6E
100
AcDbEntity
  8
0
  6
Continuous
 62
     7
100
AcDbLine
 10
-54.44999847421352
 20
459.9034235662847
 30
0.0
 11
-54.44999847421352
 21
456.2534235662847
 31
0.0
  0
LINE
  5
2E6
330
6E
100
AcDbEntity
  8
0
  6
Continuous
 62
     7
100
AcDbLine
 10
-54.44999847421352
 20
456.2534235662847
 30
0.0
 11
-52.19999847421352
 21
456.2534235662847
 31
0.0
  0
LINE
  5
2E7
330
6E
100
AcDbEntity
  8
0
  6
Continuous
 62
     7
100
AcDbLine
 10
-52.19999847421352
 20
459.9034235662847
 30
0.0
 11
-52.19999847421352
 21
461.103423565974
 31
0.0
  0
LINE
  5
2E8
330
6E
100
AcDbEntity
  8
0
  6
Continuous
 62
     7
100
AcDbLine
 10
-52.19999847421352
 20
456.2534235662847
 30
0.0
 11
-47.39999847421353
 21
456.2534235662847
 31
0.0
  0
LINE
  5
2E9
330
6E
100
AcDbEntity
  8
0
  6
Continuous
 62
     7
100
AcDbLine
 10
-47.39999847421353
 20
485.9175251814213
 30
0.0
 11
-47.39999847421353
 21
456.2534235662847
 31
0.0
  0
LINE
  5
2EA
330
6E
100
AcDbEntity
  8
0
  6
Continuous
 62
     7
100
AcDbLine
 10
-53.59999847421352
 20
461.1278606567486
 30
0.0
 11
-53.59999847421352
 21
483.6807319814072
 31
0.0
  0
LINE
  5
2EB
330
6E
100
AcDbEntity
  8
0
  6
Continuous
 62
     7
100
AcDbLine
 10
-52.19999847421352
 20
461.103423565974
 30
0.0
 11
-53.59999847421352
 21
461.1278606567486
 31
0.0
  0
LINE
  5
2EC
330
6E
100
AcDbEntity
  8
0
  6
Continuous
 62
     7
100
AcDbLine
 10
-52.19999847421352
 20
456.2534235662847
 30
0.0
 11
-52.19999847421352
 21
459.9034235662847
 31
0.0
  0
LINE
  5
2ED
330
6E
100
AcDbEntity
  8
0
  6
Continuous
 62
     7
100
AcDbLine
 10
-47.39999847421353
 20
486.2527111651866
 30
0.0
 11
-47.39999847421353
 21
495.182272492922
 31
0.0
  0
LINE
  5
2EE
330
6E
100
AcDbEntity
  8
0
  6
Continuous
 62
     7
100
AcDbLine
 10
-54.89999847421353
 20
461.127860657309
 30
0.0
 11
-56.29999847421351
 21
461.1034235662847
 31
0.0
  0
ENDBLK
  5
70
330
6E
100
AcDbEntity
  8
0
100
AcDbBlockEnd
  0
BLOCK
  5
73
330
71
100
AcDbEntity
  8
0
100
AcDbBlockBegin
  2
SA_Rechts1
 70
     0
 10
-56.14999909269753
 20
472.5458693014385
 30
0.0
  3
SA_Rechts1
  1

  0
INSERT
  5
72
330
71
100
AcDbEntity
  8
0
100
AcDbBlockReference
  2
PT_5___ST-select__5
 10
-64.89999847421353
 20
446.7500015662847
 30
0.0
  0
MTEXT
  5
2EF
330
71
100
AcDbEntity
  8
1
 62
     6
100
AcDbMText
 10
-56.14999909269773
 20
441.7500013815162
 30
0.0
 40
5.0
 41
0.0
 71
     2
 72
     1
  1
 
  7
CONVERTER_11
 73
     1
 44
1.32052821128451
  0
ENDBLK
  5
74
330
71
100
AcDbEntity
  8
0
100
AcDbBlockEnd
  0
BLOCK
  5
76
330
75
100
AcDbEntity
  8
0
100
AcDbBlockBegin
  2
PT_5___ST-select__6
 70
     0
 10
79.39999847421382
 20
446.7500015662843
 30
0.0
  3
PT_5___ST-select__6
  1

  0
LINE
  5
2F0
330
75
100
AcDbEntity
  8
0
  6
Continuous
 62
     7
100
AcDbLine
 10
79.39999847421382
 20
497.1950648999506
 30
0.0
 11
79.39999847421382
 21
497.468776366312
 31
0.0
  0
LINE
  5
2F1
330
75
100
AcDbEntity
  8
0
  6
Continuous
 62
     7
100
AcDbLine
 10
79.39999847421382
 20
495.1822724929214
 30
0.0
 11
79.39999847421382
 21
497.1950648999506
 31
0.0
  0
LINE
  5
2F2
330
75
100
AcDbEntity
  8
0
  6
Continuous
 62
     7
100
AcDbLine
 10
79.39999847421382
 20
497.468776366312
 30
0.0
 11
79.39999847421382
 21
498.000866891981
 31
0.0
  0
LINE
  5
2F3
330
75
100
AcDbEntity
  8
0
  6
Continuous
 62
     7
100
AcDbLine
 10
79.39999847421382
 20
498.000866891981
 30
0.0
 11
79.39999847421382
 21
498.4534235662834
 31
0.0
  0
LINE
  5
2F4
330
75
100
AcDbEntity
  8
0
  6
Continuous
 62
     7
100
AcDbLine
 10
96.89999847421382
 20
486.2527079497957
 30
0.0
 11
79.39999847421382
 21
486.2527079497957
 31
0.0
  0
LINE
  5
2F5
330
75
100
AcDbEntity
  8
0
  6
Continuous
 62
     7
100
AcDbLine
 10
79.39999847421382
 20
485.9175251814211
 30
0.0
 11
96.89999847421382
 21
485.9175251814211
 31
0.0
  0
LINE
  5
2F6
330
75
100
AcDbEntity
  8
0
  6
Continuous
 62
     7
100
AcDbLine
 10
79.39999847421382
 20
495.1822724929214
 30
0.0
 11
96.89999847421382
 21
495.1822724929214
 31
0.0
  0
LINE
  5
2F7
330
75
100
AcDbEntity
  8
0
  6
Continuous
 62
     7
100
AcDbLine
 10
83.74999847421381
 20
456.2534235662843
 30
0.0
 11
83.74999847421373
 21
446.7500015662843
 31
0.0
  0
LINE
  5
2F8
330
75
100
AcDbEntity
  8
0
  6
Continuous
 62
     7
100
AcDbLine
 10
82.94999847421383
 20
446.7500015662843
 30
0.0
 11
83.74999847421373
 21
446.7500015662843
 31
0.0
  0
LINE
  5
2F9
330
75
100
AcDbEntity
  8
0
  6
Continuous
 62
     7
100
AcDbLine
 10
82.94999847421383
 20
456.2534235662843
 30
0.0
 11
82.94999847421383
 21
454.4451725662843
 31
0.0
  0
LINE
  5
2FA
330
75
100
AcDbEntity
  8
0
  6
Continuous
 62
     7
100
AcDbLine
 10
82.94999847421383
 20
446.7500015662843
 30
0.0
 11
82.14999847421382
 21
446.7500015662843
 31
0.0
  0
LINE
  5
2FB
330
75
100
AcDbEntity
  8
0
  6
Continuous
 62
     7
100
AcDbLine
 10
79.39999847421382
 20
485.9175251814211
 30
0.0
 11
79.39999847421382
 21
486.2527079497957
 31
0.0
  0
LINE
  5
2FC
330
75
100
AcDbEntity
  8
0
  6
Continuous
 62
     7
100
AcDbLine
 10
80.3999984742137
 20
483.7034235662833
 30
0.0
 11
79.39999847421382
 21
483.7034235662833
 31
0.0
  0
LINE
  5
2FD
330
75
100
AcDbEntity
  8
0
  6
Continuous
 62
     7
100
AcDbLine
 10
79.39999847421382
 20
456.2534235662843
 30
0.0
 11
80.3999984742137
 21
456.2534235662843
 31
0.0
  0
LINE
  5
2FE
330
75
100
AcDbEntity
  8
0
  6
Continuous
 62
     7
100
AcDbLine
 10
79.39999847421382
 20
485.9175251814211
 30
0.0
 11
79.39999847421382
 21
483.7034235662833
 31
0.0
  0
LINE
  5
2FF
330
75
100
AcDbEntity
  8
0
  6
Continuous
 62
     7
100
AcDbLine
 10
82.14999847421382
 20
454.4451725662843
 30
0.0
 11
82.14999847421382
 21
446.7500015662843
 31
0.0
  0
LINE
  5
300
330
75
100
AcDbEntity
  8
0
  6
Continuous
 62
     7
100
AcDbLine
 10
82.94999847421383
 20
454.4451725662843
 30
0.0
 11
82.94999847421383
 21
446.7500015662843
 31
0.0
  0
LINE
  5
301
330
75
100
AcDbEntity
  8
0
  6
Continuous
 62
     7
100
AcDbLine
 10
79.39999847421382
 20
486.2527079497957
 30
0.0
 11
79.39999847421382
 21
495.1822724929214
 31
0.0
  0
LINE
  5
302
330
75
100
AcDbEntity
  8
0
  6
Continuous
 62
     7
100
AcDbLine
 10
96.89999847421382
 20
497.1950648999506
 30
0.0
 11
79.39999847421382
 21
497.1950648999506
 31
0.0
  0
LINE
  5
303
330
75
100
AcDbEntity
  8
0
  6
Continuous
 62
     7
100
AcDbLine
 10
79.39999847421382
 20
497.468776366312
 30
0.0
 11
96.89999847421382
 21
497.468776366312
 31
0.0
  0
LINE
  5
304
330
75
100
AcDbEntity
  8
0
  6
Continuous
 62
     7
100
AcDbLine
 10
96.89999847421382
 20
498.000866891981
 30
0.0
 11
96.89999847421382
 21
498.4534235662834
 31
0.0
  0
LINE
  5
305
330
75
100
AcDbEntity
  8
0
  6
Continuous
 62
     7
100
AcDbLine
 10
96.89999847421382
 20
498.000866891981
 30
0.0
 11
79.39999847421382
 21
498.000866891981
 31
0.0
  0
LINE
  5
306
330
75
100
AcDbEntity
  8
0
  6
Continuous
 62
     7
100
AcDbLine
 10
96.89999847421382
 20
498.4534235662834
 30
0.0
 11
79.39999847421382
 21
498.4534235662834
 31
0.0
  0
LINE
  5
307
330
75
100
AcDbEntity
  8
0
  6
Continuous
 62
     7
100
AcDbLine
 10
95.89999847421393
 20
456.2534235662843
 30
0.0
 11
89.8499984742138
 21
456.2534235662843
 31
0.0
  0
LINE
  5
308
330
75
100
AcDbEntity
  8
0
  6
Continuous
 62
     7
100
AcDbLine
 10
96.89999847421382
 20
485.9175251814211
 30
0.0
 11
96.89999847421382
 21
483.7034235662833
 31
0.0
  0
LINE
  5
309
330
75
100
AcDbEntity
  8
0
  6
Continuous
 62
     7
100
AcDbLine
 10
82.94999847421383
 20
454.4451725662843
 30
0.0
 11
82.14999847421382
 21
454.4451725662843
 31
0.0
  0
LINE
  5
30A
330
75
100
AcDbEntity
  8
0
  6
Continuous
 62
     7
100
AcDbLine
 10
88.94999847421383
 20
454.4451725662843
 30
0.0
 11
88.1499984742137
 21
454.4451725662843
 31
0.0
  0
LINE
  5
30B
330
75
100
AcDbEntity
  8
0
  6
Continuous
 62
     7
100
AcDbLine
 10
82.14999847421382
 20
456.2534235662843
 30
0.0
 11
82.14999847421382
 21
454.4451725662843
 31
0.0
  0
LINE
  5
30C
330
75
100
AcDbEntity
  8
0
  6
Continuous
 62
     7
100
AcDbLine
 10
88.1499984742137
 20
459.9034235662842
 30
0.0
 11
88.1499984742137
 21
454.4451725662843
 31
0.0
  0
LINE
  5
30D
330
75
100
AcDbEntity
  8
0
  6
Continuous
 62
     7
100
AcDbLine
 10
88.94999847421383
 20
456.2534235662843
 30
0.0
 11
89.8499984742138
 21
456.2534235662843
 31
0.0
  0
LINE
  5
30E
330
75
100
AcDbEntity
  8
0
  6
Continuous
 62
     7
100
AcDbLine
 10
89.8499984742138
 20
456.2534235662843
 30
0.0
 11
89.8499984742138
 21
459.9034235662842
 31
0.0
  0
LINE
  5
30F
330
75
100
AcDbEntity
  8
0
  6
Continuous
 62
     7
100
AcDbLine
 10
88.1499984742137
 20
459.9034235662842
 30
0.0
 11
88.94999847421383
 21
459.9034235662842
 31
0.0
  0
LINE
  5
310
330
75
100
AcDbEntity
  8
0
  6
Continuous
 62
     7
100
AcDbLine
 10
88.94999847421383
 20
459.9034235662842
 30
0.0
 11
89.8499984742138
 21
459.9034235662842
 31
0.0
  0
LINE
  5
311
330
75
100
AcDbEntity
  8
0
  6
Continuous
 62
     7
100
AcDbLine
 10
86.44999847421383
 20
459.9034235662842
 30
0.0
 11
88.1499984742137
 21
459.9034235662842
 31
0.0
  0
LINE
  5
312
330
75
100
AcDbEntity
  8
0
  6
Continuous
 62
     7
100
AcDbLine
 10
86.44999847421383
 20
456.2534235662843
 30
0.0
 11
80.3999984742137
 21
456.2534235662843
 31
0.0
  0
LINE
  5
313
330
75
100
AcDbEntity
  8
0
  6
Continuous
 62
     7
100
AcDbLine
 10
86.44999847421383
 20
459.9034235662842
 30
0.0
 11
86.44999847421383
 21
456.2534235662843
 31
0.0
  0
LINE
  5
314
330
75
100
AcDbEntity
  8
0
  6
Continuous
 62
     7
100
AcDbLine
 10
79.39999847421382
 20
483.7034235662833
 30
0.0
 11
79.39999847421382
 21
456.2534235662843
 31
0.0
  0
LINE
  5
315
330
75
100
AcDbEntity
  8
0
  6
Continuous
 62
     7
100
AcDbLine
 10
88.94999847421383
 20
459.9034235662842
 30
0.0
 11
88.94999847421383
 21
454.4451725662843
 31
0.0
  0
LINE
  5
316
330
75
100
AcDbEntity
  8
0
  6
Continuous
 62
     7
100
AcDbLine
 10
92.54999847421382
 20
454.4451725662843
 30
0.0
 11
92.54999847421382
 21
446.7500015662843
 31
0.0
  0
LINE
  5
317
330
75
100
AcDbEntity
  8
0
  6
Continuous
 62
     7
100
AcDbLine
 10
94.14999847421382
 20
456.2534235662843
 30
0.0
 11
94.14999847421382
 21
446.7500015662843
 31
0.0
  0
LINE
  5
318
330
75
100
AcDbEntity
  8
0
  6
Continuous
 62
     7
100
AcDbLine
 10
93.3499984742138
 20
446.7500015662843
 30
0.0
 11
94.14999847421382
 21
446.7500015662843
 31
0.0
  0
LINE
  5
319
330
75
100
AcDbEntity
  8
0
  6
Continuous
 62
     7
100
AcDbLine
 10
93.3499984742138
 20
454.4451725662843
 30
0.0
 11
93.3499984742138
 21
446.7500015662843
 31
0.0
  0
LINE
  5
31A
330
75
100
AcDbEntity
  8
0
  6
Continuous
 62
     7
100
AcDbLine
 10
93.3499984742138
 20
446.7500015662843
 30
0.0
 11
92.54999847421382
 21
446.7500015662843
 31
0.0
  0
LINE
  5
31B
330
75
100
AcDbEntity
  8
0
  6
Continuous
 62
     7
100
AcDbLine
 10
92.54999847421382
 20
456.2534235662843
 30
0.0
 11
92.54999847421382
 21
454.4451725662843
 31
0.0
  0
LINE
  5
31C
330
75
100
AcDbEntity
  8
0
  6
Continuous
 62
     7
100
AcDbLine
 10
92.54999847421382
 20
454.4451725662843
 30
0.0
 11
93.3499984742138
 21
454.4451725662843
 31
0.0
  0
LINE
  5
31D
330
75
100
AcDbEntity
  8
0
  6
Continuous
 62
     7
100
AcDbLine
 10
95.89999847421393
 20
456.2534235662843
 30
0.0
 11
96.89999847421382
 21
456.2534235662843
 31
0.0
  0
LINE
  5
31E
330
75
100
AcDbEntity
  8
0
  6
Continuous
 62
     7
100
AcDbLine
 10
96.89999847421382
 20
485.9175251814211
 30
0.0
 11
96.89999847421382
 21
486.2527079497957
 31
0.0
  0
LINE
  5
31F
330
75
100
AcDbEntity
  8
0
  6
Continuous
 62
     7
100
AcDbLine
 10
96.89999847421382
 20
495.1822724929214
 30
0.0
 11
96.89999847421382
 21
497.1950648999506
 31
0.0
  0
LINE
  5
320
330
75
100
AcDbEntity
  8
0
  6
Continuous
 62
     7
100
AcDbLine
 10
96.89999847421382
 20
497.1950648999506
 30
0.0
 11
96.89999847421382
 21
497.468776366312
 31
0.0
  0
LINE
  5
321
330
75
100
AcDbEntity
  8
0
  6
Continuous
 62
     7
100
AcDbLine
 10
96.89999847421382
 20
497.468776366312
 30
0.0
 11
96.89999847421382
 21
498.000866891981
 31
0.0
  0
LINE
  5
322
330
75
100
AcDbEntity
  8
0
  6
Continuous
 62
     7
100
AcDbLine
 10
95.89999847421393
 20
483.7034235662833
 30
0.0
 11
95.89999847421393
 21
456.2534235662843
 31
0.0
  0
LINE
  5
323
330
75
100
AcDbEntity
  8
0
  6
Continuous
 62
     7
100
AcDbLine
 10
96.89999847421382
 20
483.7034235662833
 30
0.0
 11
95.89999847421393
 21
483.7034235662833
 31
0.0
  0
LINE
  5
324
330
75
100
AcDbEntity
  8
0
  6
Continuous
 62
     7
100
AcDbLine
 10
93.3499984742138
 20
456.2534235662843
 30
0.0
 11
93.3499984742138
 21
454.4451725662843
 31
0.0
  0
LINE
  5
325
330
75
100
AcDbEntity
  8
0
  6
Continuous
 62
     7
100
AcDbLine
 10
96.89999847421382
 20
486.2527079497957
 30
0.0
 11
96.89999847421382
 21
495.1822724929214
 31
0.0
  0
LINE
  5
326
330
75
100
AcDbEntity
  8
0
  6
Continuous
 62
     7
100
AcDbLine
 10
96.89999847421382
 20
483.7034235662833
 30
0.0
 11
96.89999847421382
 21
456.2534235662843
 31
0.0
  0
LINE
  5
327
330
75
100
AcDbEntity
  8
0
  6
Continuous
 62
     7
100
AcDbLine
 10
80.3999984742137
 20
483.7034235662833
 30
0.0
 11
80.3999984742137
 21
456.2534235662843
 31
0.0
  0
ENDBLK
  5
77
330
75
100
AcDbEntity
  8
0
100
AcDbBlockEnd
  0
BLOCK
  5
7A
330
78
100
AcDbEntity
  8
0
100
AcDbBlockBegin
  2
SA_Links1
 70
     0
 10
88.14999909269781
 20
472.5458693014381
 30
0.0
  3
SA_Links1
  1

  0
INSERT
  5
79
330
78
100
AcDbEntity
  8
0
100
AcDbBlockReference
  2
PT_5___ST-select__6
 10
79.39999847421382
 20
446.7500015662843
 30
0.0
  0
MTEXT
  5
328
330
78
100
AcDbEntity
  8
1
 62
     6
100
AcDbMText
 10
88.14999909269761
 20
441.7500013815162
 30
0.0
 40
5.0
 41
0.0
 71
     2
 72
     1
  1
 
  7
CONVERTER_11
 73
     1
 44
1.32052821128451
  0
ENDBLK
  5
7B
330
78
100
AcDbEntity
  8
0
100
AcDbBlockEnd
  0
BLOCK
  5
84
330
7C
100
AcDbEntity
  8
0
100
AcDbBlockBegin
  2
1
 70
     0
 10
0.0
 20
0.0
 30
0.0
  3
1
  1

  0
INSERT
  5
7D
330
7C
100
AcDbEntity
  8
0
100
AcDbBlockReference
  2
Allg1
 10
141.9999999999998
 20
407.0
 30
0.0
  0
INSERT
  5
7E
330
7C
100
AcDbEntity
  8
0
100
AcDbBlockReference
  2
A4I_CS
 10
193.900000234839
 20
332.8517110923839
 30
0.0
  0
INSERT
  5
7F
330
7C
100
AcDbEntity
  8
0
100
AcDbBlockReference
  2
Drfsicht2
 10
32.9999999999999
 20
402.0000000000001
 30
0.0
  0
INSERT
  5
80
330
7C
100
AcDbEntity
  8
0
100
AcDbBlockReference
  2
Rckans1
 10
150.2999981853952
 20
472.5458693014381
 30
0.0
  0
INSERT
  5
81
330
7C
100
AcDbEntity
  8
0
100
AcDbBlockReference
  2
Vordans2
 10
32.99999999999986
 20
472.5458693014381
 30
0.0
  0
INSERT
  5
82
330
7C
100
AcDbEntity
  8
0
100
AcDbBlockReference
  2
SA_Rechts1
 10
-56.14999909269753
 20
472.5458693014385
 30
0.0
  0
INSERT
  5
83
330
7C
100
AcDbEntity
  8
0
100
AcDbBlockReference
  2
SA_Links1
 10
88.14999909269781
 20
472.5458693014381
 30
0.0
  0
ENDBLK
  5
85
330
7C
100
AcDbEntity
  8
0
100
AcDbBlockEnd
  0
BLOCK
  5
23D
330
236
100
AcDbEntity
  8
0
100
AcDbBlockBegin
  2
*D17
 70
     1
 10
0.0
 20
0.0
 30
0.0
  3
*D17
  1

  0
LINE
  5
237
330
236
100
AcDbEntity
  8
1
  6
Continuous
 62
     2
100
AcDbLine
 10
0.59999924150473
 20
393.2500006184841
 30
0.0
 11
0.59999924150473
 21
410.7500006184841
 31
0.0
  0
LINE
  5
238
330
236
100
AcDbEntity
  8
1
  6
Continuous
 62
     2
100
AcDbLine
 10
10.59999924150473
 20
393.2500006184841
 30
0.0
 11
-0.90000075849527
 21
393.2500006184841
 31
0.0
  0
LINE
  5
239
330
236
100
AcDbEntity
  8
1
  6
Continuous
 62
     2
100
AcDbLine
 10
10.59999924150476
 20
410.7500006184841
 30
0.0
 11
-0.90000075849527
 21
410.7500006184841
 31
0.0
  0
SOLID
  5
23A
330
236
100
AcDbEntity
  8
1
 62
     2
100
AcDbTrace
 10
0.13921549994885
 20
396.7500006184841
 30
0.0
 11
1.06078298306062
 21
396.7500006184841
 31
0.0
 12
0.59999924150473
 22
393.2500006184841
 32
0.0
 13
0.59999924150473
 23
393.2500006184841
 33
0.0
  0
SOLID
  5
23B
330
236
100
AcDbEntity
  8
1
 62
     2
100
AcDbTrace
 10
1.06078298306062
 20
407.2500006184841
 30
0.0
 11
0.13921549994885
 21
407.2500006184841
 31
0.0
 12
0.59999924150473
 22
410.7500006184841
 32
0.0
 13
0.59999924150473
 23
410.7500006184841
 33
0.0
  0
MTEXT
  5
23C
330
236
100
AcDbEntity
  8
1
 62
     3
100
AcDbMText
 10
-1.25000075849527
 20
397.003155793697
 30
0.0
 40
3.5
 41
0.0
 71
     7
 72
     1
  1
17,5
  7
CONVERTER_11
 11
0.0
 21
1.0
 31
0.0
 73
     1
 44
0.60024009603842
  0
ENDBLK
  5
23E
330
236
100
AcDbEntity
  8
0
100
AcDbBlockEnd
  0
BLOCK
  5
2A3
330
29C
100
AcDbEntity
  8
0
100
AcDbBlockBegin
  2
*D18
 70
     1
 10
0.0
 20
0.0
 30
0.0
  3
*D18
  1

  0
LINE
  5
29D
330
29C
100
AcDbEntity
  8
1
  6
Continuous
 62
     2
100
AcDbLine
 10
10.59999924150376
 20
436.723450887153
 30
0.0
 11
55.39999924150507
 21
436.723450887153
 31
0.0
  0
LINE
  5
29E
330
29C
100
AcDbEntity
  8
1
  6
Continuous
 62
     2
100
AcDbLine
 10
10.59999924150376
 20
456.2534235662843
 30
0.0
 11
10.59999924150376
 21
435.223450887153
 31
0.0
  0
LINE
  5
29F
330
29C
100
AcDbEntity
  8
1
  6
Continuous
 62
     2
100
AcDbLine
 10
55.39999924150507
 20
456.2534235662843
 30
0.0
 11
55.39999924150507
 21
435.223450887153
 31
0.0
  0
SOLID
  5
2A0
330
29C
100
AcDbEntity
  8
1
 62
     2
100
AcDbTrace
 10
14.09999924150376
 20
437.1842346287089
 30
0.0
 11
14.09999924150376
 21
436.2626671455971
 31
0.0
 12
10.59999924150376
 22
436.723450887153
 32
0.0
 13
10.59999924150376
 23
436.723450887153
 33
0.0
  0
SOLID
  5
2A1
330
29C
100
AcDbEntity
  8
1
 62
     2
100
AcDbTrace
 10
51.89999924150507
 20
436.2626671455971
 30
0.0
 11
51.89999924150507
 21
437.1842346287089
 31
0.0
 12
55.39999924150507
 22
436.723450887153
 32
0.0
 13
55.39999924150507
 23
436.723450887153
 33
0.0
  0
MTEXT
  5
2A2
330
29C
100
AcDbEntity
  8
1
 62
     3
100
AcDbMText
 10
29.4468397083552
 20
438.573450887153
 30
0.0
 40
3.5
 41
0.0
 71
     7
 72
     1
  1
44,8
  7
CONVERTER_11
 11
0.9999999999970619
 21
2.424068405545306E-6
 31
0.0
 73
     1
 44
0.60024009603842
  0
ENDBLK
  5
2A4
330
29C
100
AcDbEntity
  8
0
100
AcDbBlockEnd
  0
BLOCK
  5
2AE
330
2A7
100
AcDbEntity
  8
0
100
AcDbBlockBegin
  2
*D19
 70
     1
 10
0.0
 20
0.0
 30
0.0
  3
*D19
  1

  0
LINE
  5
2A8
330
2A7
100
AcDbEntity
  8
1
  6
Continuous
 62
     2
100
AcDbLine
 10
1.89999924150373
 20
498.4476491550332
 30
0.0
 11
1.89999924150373
 21
456.2534235662843
 31
0.0
  0
LINE
  5
2A9
330
2A7
100
AcDbEntity
  8
1
  6
Continuous
 62
     2
100
AcDbLine
 10
18.51977921117749
 20
498.4476491550332
 30
0.0
 11
0.39999924150373
 21
498.4476491550332
 31
0.0
  0
LINE
  5
2AA
330
2A7
100
AcDbEntity
  8
1
  6
Continuous
 62
     2
100
AcDbLine
 10
11.89999924150374
 20
456.2534235662843
 30
0.0
 11
0.39999924150373
 21
456.2534235662843
 31
0.0
  0
SOLID
  5
2AB
330
2A7
100
AcDbEntity
  8
1
 62
     2
100
AcDbTrace
 10
2.36078298305962
 20
494.9476491550332
 30
0.0
 11
1.43921549994785
 21
494.9476491550332
 31
0.0
 12
1.89999924150373
 22
498.4476491550332
 32
0.0
 13
1.89999924150373
 23
498.4476491550332
 33
0.0
  0
SOLID
  5
2AC
330
2A7
100
AcDbEntity
  8
1
 62
     2
100
AcDbTrace
 10
1.43921549994785
 20
459.7534235662843
 30
0.0
 11
2.36078298305962
 21
459.7534235662843
 31
0.0
 12
1.89999924150373
 22
456.2534235662843
 32
0.0
 13
1.89999924150373
 23
456.2534235662843
 33
0.0
  0
MTEXT
  5
2AD
330
2A7
100
AcDbEntity
  8
1
 62
     3
100
AcDbMText
 10
0.04999924150373
 20
471.501487761226
 30
0.0
 40
3.5
 41
0.0
 71
     7
 72
     1
  1
42,2
  7
CONVERTER_11
 11
0.0
 21
1.0
 31
0.0
 73
     1
 44
0.60024009603842
  0
ENDBLK
  5
2AF
330
2A7
100
AcDbEntity
  8
0
100
AcDbBlockEnd
  0
BLOCK
  5
2B9
330
2B2
100
AcDbEntity
  8
0
100
AcDbBlockBegin
  2
*D20
 70
     1
 10
0.0
 20
0.0
 30
0.0
  3
*D20
  1

  0
LINE
  5
2B3
330
2B2
100
AcDbEntity
  8
1
  6
Continuous
 62
     2
100
AcDbLine
 10
-6.10000075849626
 20
446.7500015662842
 30
0.0
 11
-6.10000075849626
 21
498.4476491550332
 31
0.0
  0
LINE
  5
2B4
330
2B2
100
AcDbEntity
  8
1
  6
Continuous
 62
     2
100
AcDbLine
 10
16.84999924150445
 20
446.7500015662842
 30
0.0
 11
-7.60000075849626
 21
446.7500015662842
 31
0.0
  0
LINE
  5
2B5
330
2B2
100
AcDbEntity
  8
1
  6
Continuous
 62
     2
100
AcDbLine
 10
18.51977921117749
 20
498.4476491550332
 30
0.0
 11
-7.60000075849626
 21
498.4476491550332
 31
0.0
  0
SOLID
  5
2B6
330
2B2
100
AcDbEntity
  8
1
 62
     2
100
AcDbTrace
 10
-6.56078450005215
 20
450.2500015662842
 30
0.0
 11
-5.63921701694038
 21
450.2500015662842
 31
0.0
 12
-6.10000075849626
 22
446.7500015662842
 32
0.0
 13
-6.10000075849626
 23
446.7500015662842
 33
0.0
  0
SOLID
  5
2B7
330
2B2
100
AcDbEntity
  8
1
 62
     2
100
AcDbTrace
 10
-5.63921701694038
 20
494.9476491550332
 30
0.0
 11
-6.56078450005215
 21
494.9476491550332
 31
0.0
 12
-6.10000075849626
 22
498.4476491550332
 32
0.0
 13
-6.10000075849626
 23
498.4476491550332
 33
0.0
  0
MTEXT
  5
2B8
330
2B2
100
AcDbEntity
  8
1
 62
     3
100
AcDbMText
 10
-7.95000075849627
 20
472.026487761226
 30
0.0
 40
3.5
 41
0.0
 71
     7
 72
     1
  1
51,7
  7
CONVERTER_11
 11
0.0
 21
1.0
 31
0.0
 73
     1
 44
0.60024009603842
  0
ENDBLK
  5
2BA
330
2B2
100
AcDbEntity
  8
0
100
AcDbBlockEnd
  0
ENDSEC
  0
SECTION
  2
ENTITIES
  0
INSERT
  5
86
330
1F
100
AcDbEntity
  8
1
100
AcDbBlockReference
  2
1
 10
0.0
 20
0.0
 30
0.0
  0
ENDSEC
  0
SECTION
  2
OBJECTS
  0
DICTIONARY
  5
C
330
0
100
AcDbDictionary
281
     1
  3
ACAD_GROUP
350
D
  3
ACAD_LAYOUT
350
1A
  3
ACAD_MATERIAL
350
3B
  3
ACAD_MLEADERSTYLE
350
350
  3
ACAD_MLINESTYLE
350
17
  3
ACAD_PLOTSETTINGS
350
19
  3
ACAD_PLOTSTYLENAME
350
E
  3
ACAD_TABLESTYLE
350
34F
  3
ACAD_VISUALSTYLE
350
2A
  0
DICTIONARY
  5
D
102
{ACAD_REACTORS
330
C
102
}
330
C
100
AcDbDictionary
281
     1
  0
DICTIONARY
  5
1A
102
{ACAD_REACTORS
330
C
102
}
330
C
100
AcDbDictionary
281
     1
  3
Layout1
350
1E
  3
Layout2
350
26
  3
Model
350
22
  0
DICTIONARY
  5
3B
102
{ACAD_REACTORS
330
C
102
}
330
C
100
AcDbDictionary
281
     1
  3
ByBlock
350
3D
  3
ByLayer
350
3C
  3
Global
350
3E
  0
DICTIONARY
  5
350
102
{ACAD_REACTORS
330
C
102
}
330
C
100
AcDbDictionary
281
     1
  0
DICTIONARY
  5
17
102
{ACAD_REACTORS
330
C
102
}
330
C
100
AcDbDictionary
281
     1
  3
Standard
350
18
  0
DICTIONARY
  5
19
102
{ACAD_REACTORS
330
C
102
}
330
C
100
AcDbDictionary
281
     1
  0
ACDBDICTIONARYWDFLT
  5
E
102
{ACAD_REACTORS
330
C
102
}
330
C
100
AcDbDictionary
281
     1
  3
Normal
350
F
100
AcDbDictionaryWithDefault
340
F
  0
DICTIONARY
  5
34F
102
{ACAD_REACTORS
330
C
102
}
330
C
100
AcDbDictionary
281
     1
  0
DICTIONARY
  5
2A
102
{ACAD_REACTORS
330
C
102
}
330
C
100
AcDbDictionary
281
     1
  3
2dWireframe
350
2F
  3
3D Hidden
350
31
  3
3dWireframe
350
30
  3
Basic
350
32
  3
Brighten
350
36
  3
ColorChange
350
3A
  3
Conceptual
350
34
  3
Dim
350
35
  3
Facepattern
350
39
  3
Flat
350
2B
  3
FlatWithEdges
350
2C
  3
Gouraud
350
2D
  3
GouraudWithEdges
350
2E
  3
Linepattern
350
38
  3
Realistic
350
33
  3
Thicken
350
37
  0
LAYOUT
  5
1E
102
{ACAD_REACTORS
330
1A
102
}
330
1A
100
AcDbPlotSettings
  1

  2
none_device
  4

  6

 40
0.0
 41
0.0
 42
0.0
 43
0.0
 44
0.0
 45
0.0
 46
0.0
 47
0.0
 48
0.0
 49
0.0
140
0.0
141
0.0
142
1.0
143
1.0
 70
   688
 72
     0
 73
     0
 74
     5
  7

 75
    16
 76
     0
 77
     2
 78
   300
147
1.0
148
0.0
149
0.0
100
AcDbLayout
  1
Layout1
 70
     1
 71
     1
 10
0.0
 20
0.0
 11
12.0
 21
9.0
 12
0.0
 22
0.0
 32
0.0
 14
1.00000000000000E+20
 24
1.00000000000000E+20
 34
1.00000000000000E+20
 15
-1.00000000000000E+20
 25
-1.00000000000000E+20
 35
-1.00000000000000E+20
146
0.0
 13
0.0
 23
0.0
 33
0.0
 16
1.0
 26
0.0
 36
0.0
 17
0.0
 27
1.0
 37
0.0
 76
     0
330
1B
  0
LAYOUT
  5
26
102
{ACAD_REACTORS
330
1A
102
}
330
1A
100
AcDbPlotSettings
  1

  2
none_device
  4

  6

 40
0.0
 41
0.0
 42
0.0
 43
0.0
 44
0.0
 45
0.0
 46
0.0
 47
0.0
 48
0.0
 49
0.0
140
0.0
141
0.0
142
1.0
143
1.0
 70
   688
 72
     0
 73
     0
 74
     5
  7

 75
    16
 76
     0
 77
     2
 78
   300
147
1.0
148
0.0
149
0.0
100
AcDbLayout
  1
Layout2
 70
     1
 71
     2
 10
0.0
 20
0.0
 11
0.0
 21
0.0
 12
0.0
 22
0.0
 32
0.0
 14
0.0
 24
0.0
 34
0.0
 15
0.0
 25
0.0
 35
0.0
146
0.0
 13
0.0
 23
0.0
 33
0.0
 16
1.0
 26
0.0
 36
0.0
 17
0.0
 27
1.0
 37
0.0
 76
     0
330
23
  0
LAYOUT
  5
22
102
{ACAD_REACTORS
330
1A
102
}
330
1A
100
AcDbPlotSettings
  1

  2
none_device
  4

  6

 40
0.0
 41
0.0
 42
0.0
 43
0.0
 44
0.0
 45
0.0
 46
0.0
 47
0.0
 48
0.0
 49
0.0
140
0.0
141
0.0
142
1.0
143
1.0
 70
  1712
 72
     0
 73
     0
 74
     0
  7

 75
     0
 76
     0
 77
     2
 78
   300
147
1.0
148
0.0
149
0.0
100
AcDbLayout
  1
Model
 70
     1
 71
     0
 10
0.0
 20
0.0
 11
12.0
 21
9.0
 12
0.0
 22
0.0
 32
0.0
 14
-98.09999976516013
 24
332.8517110923839
 34
0.0
 15
198.9000002348379
 25
542.851711092384
 35
0.0
146
0.0
 13
0.0
 23
0.0
 33
0.0
 16
1.0
 26
0.0
 36
0.0
 17
0.0
 27
1.0
 37
0.0
 76
     0
330
1F
331
29
  0
MATERIAL
  5
3D
102
{ACAD_REACTORS
330
3B
102
}
102
{ACAD_XDICTIONARY
360
34B
102
}
330
3B
100
AcDbMaterial
  1
ByBlock
  0
MATERIAL
  5
3C
102
{ACAD_REACTORS
330
3B
102
}
102
{ACAD_XDICTIONARY
360
349
102
}
330
3B
100
AcDbMaterial
  1
ByLayer
  0
MATERIAL
  5
3E
102
{ACAD_REACTORS
330
3B
102
}
102
{ACAD_XDICTIONARY
360
34D
102
}
330
3B
100
AcDbMaterial
  1
Global
  0
MLINESTYLE
  5
18
102
{ACAD_REACTORS
330
17
102
}
330
17
100
AcDbMlineStyle
  2
Standard
 70
     0
  3

 62
   256
 51
90.0
 52
90.0
 71
     2
 49
0.5
 62
   256
  6
BYLAYER
 49
-0.5
 62
   256
  6
BYLAYER
  0
ACDBPLACEHOLDER
  5
F
102
{ACAD_REACTORS
330
E
102
}
330
E
  0
VISUALSTYLE
  5
2F
102
{ACAD_REACTORS
330
2A
102
}
102
{ACAD_XDICTIONARY
360
331
102
}
330
2A
100
AcDbVisualStyle
  2
2dWireframe
 70
     4
 71
     0
 72
     2
 73
     0
 90
        0
 40
-0.6
 41
-30.0
 62
     5
 63
     7
421
 16777215
 74
     1
 91
        4
 64
     7
 65
   257
 75
     1
175
     1
 42
1.0
 92
        0
 66
   257
 43
1.0
 76
     1
 77
     6
 78
     2
 67
     7
 79
     5
170
     0
171
     0
290
     0
174
     0
 93
        1
 44
0.0
173
     0
291
     0
 45
0.0
1001
ACAD
1000
AcDbSavedByObjectVersion
1070
     0
  0
VISUALSTYLE
  5
31
102
{ACAD_REACTORS
330
2A
102
}
102
{ACAD_XDICTIONARY
360
335
102
}
330
2A
100
AcDbVisualStyle
  2
3D Hidden
 70
     6
 71
     1
 72
     2
 73
     2
 90
        0
 40
-0.6
 41
-30.0
 62
     5
 63
     7
421
 16777215
 74
     2
 91
        2
 64
     7
 65
   257
 75
     2
175
     1
 42
40.0
 92
        0
 66
   257
 43
1.0
 76
     1
 77
     6
 78
     2
 67
     7
 79
     3
170
     0
171
     0
290
     0
174
     0
 93
        1
 44
0.0
173
     0
291
     0
 45
0.0
1001
ACAD
1000
AcDbSavedByObjectVersion
1070
     0
  0
VISUALSTYLE
  5
30
102
{ACAD_REACTORS
330
2A
102
}
102
{ACAD_XDICTIONARY
360
333
102
}
330
2A
100
AcDbVisualStyle
  2
3dWireframe
 70
     5
 71
     0
 72
     2
 73
     0
 90
        0
 40
-0.6
 41
-30.0
 62
     5
 63
     7
421
 16777215
 74
     1
 91
        4
 64
     7
 65
   257
 75
     1
175
     1
 42
1.0
 92
        0
 66
   257
 43
1.0
 76
     1
 77
     6
 78
     2
 67
     7
 79
     5
170
     0
171
     0
290
     0
174
     0
 93
        1
 44
0.0
173
     0
291
     0
 45
0.0
1001
ACAD
1000
AcDbSavedByObjectVersion
1070
     0
  0
VISUALSTYLE
  5
32
102
{ACAD_REACTORS
330
2A
102
}
102
{ACAD_XDICTIONARY
360
337
102
}
330
2A
100
AcDbVisualStyle
  2
Basic
 70
     7
 71
     1
 72
     0
 73
     1
 90
        0
 40
-0.6
 41
-30.0
 62
     5
 63
     7
421
 16777215
 74
     0
 91
        4
 64
     7
 65
   257
 75
     1
175
     1
 42
1.0
 92
        8
 66
     7
 43
1.0
 76
     1
 77
     6
 78
     2
 67
     7
 79
     5
170
     0
171
     0
290
     0
174
     0
 93
        1
 44
0.0
173
     0
291
     1
 45
0.0
1001
ACAD
1000
AcDbSavedByObjectVersion
1070
     0
  0
VISUALSTYLE
  5
36
102
{ACAD_REACTORS
330
2A
102
}
102
{ACAD_XDICTIONARY
360
33F
102
}
330
2A
100
AcDbVisualStyle
  2
Brighten
 70
    12
 71
     2
 72
     2
 73
     0
 90
        0
 40
-0.6
 41
-30.0
 62
     5
 63
     7
421
 16777215
 74
     1
 91
        4
 64
     7
 65
   257
 75
     1
175
     1
 42
1.0
 92
        8
 66
     7
 43
1.0
 76
     1
 77
     6
 78
     2
 67
     7
 79
     5
170
     0
171
     0
290
     0
174
     0
 93
        1
 44
50.0
173
     0
291
     1
 45
0.0
1001
ACAD
1000
AcDbSavedByObjectVersion
1070
     0
  0
VISUALSTYLE
  5
3A
102
{ACAD_REACTORS
330
2A
102
}
102
{ACAD_XDICTIONARY
360
347
102
}
330
2A
100
AcDbVisualStyle
  2
ColorChange
 70
    16
 71
     2
 72
     2
 73
     3
 90
        0
 40
-0.6
 41
-30.0
 62
     5
 63
     8
421
  8421504
 74
     1
 91
        4
 64
     7
 65
   257
 75
     1
175
     1
 42
1.0
 92
        8
 66
     8
424
  8421504
 43
1.0
 76
     1
 77
     6
 78
     2
 67
     7
 79
     5
170
     0
171
     0
290
     0
174
     0
 93
        1
 44
0.0
173
     0
291
     1
 45
0.0
1001
ACAD
1000
AcDbSavedByObjectVersion
1070
     0
  0
VISUALSTYLE
  5
34
102
{ACAD_REACTORS
330
2A
102
}
102
{ACAD_XDICTIONARY
360
33B
102
}
330
2A
100
AcDbVisualStyle
  2
Conceptual
 70
     9
 71
     3
 72
     2
 73
     0
 90
        0
 40
-0.6
 41
-30.0
 62
     5
 63
     7
421
 16777215
 74
     2
 91
        2
 64
     7
 65
   257
 75
     1
175
     1
 42
40.0
 92
        8
 66
     7
 43
1.0
 76
     1
 77
     6
 78
     2
 67
     7
 79
     3
170
     0
171
     0
290
     0
174
     0
 93
        1
 44
0.0
173
     0
291
     0
 45
0.0
1001
ACAD
1000
AcDbSavedByObjectVersion
1070
     0
  0
VISUALSTYLE
  5
35
102
{ACAD_REACTORS
330
2A
102
}
102
{ACAD_XDICTIONARY
360
33D
102
}
330
2A
100
AcDbVisualStyle
  2
Dim
 70
    11
 71
     2
 72
     2
 73
     0
 90
        0
 40
-0.6
 41
-30.0
 62
     5
 63
     7
421
 16777215
 74
     1
 91
        4
 64
     7
 65
   257
 75
     1
175
     1
 42
1.0
 92
        8
 66
     7
 43
1.0
 76
     1
 77
     6
 78
     2
 67
     7
 79
     5
170
     0
171
     0
290
     0
174
     0
 93
        1
 44
-50.0
173
     0
291
     1
 45
0.0
1001
ACAD
1000
AcDbSavedByObjectVersion
1070
     0
  0
VISUALSTYLE
  5
39
102
{ACAD_REACTORS
330
2A
102
}
102
{ACAD_XDICTIONARY
360
345
102
}
330
2A
100
AcDbVisualStyle
  2
Facepattern
 70
    15
 71
     2
 72
     2
 73
     0
 90
        0
 40
-0.6
 41
-30.0
 62
     5
 63
     7
421
 16777215
 74
     1
 91
        4
 64
     7
 65
   257
 75
     1
175
     1
 42
1.0
 92
        8
 66
     7
 43
1.0
 76
     1
 77
     6
 78
     2
 67
     7
 79
     5
170
     0
171
     0
290
     0
174
     0
 93
        1
 44
0.0
173
     0
291
     1
 45
0.0
1001
ACAD
1000
AcDbSavedByObjectVersion
1070
     0
  0
VISUALSTYLE
  5
2B
102
{ACAD_REACTORS
330
2A
102
}
102
{ACAD_XDICTIONARY
360
329
102
}
330
2A
100
AcDbVisualStyle
  2
Flat
 70
     0
 71
     2
 72
     1
 73
     1
 90
        2
 40
-0.6
 41
30.0
 62
     5
 63
     7
421
 16777215
 74
     0
 91
        4
 64
     7
 65
   257
 75
     1
175
     1
 42
1.0
 92
        8
 66
     7
 43
1.0
 76
     1
 77
     6
 78
     2
 67
     7
 79
     5
170
     0
171
     0
290
     0
174
     0
 93
       13
 44
0.0
173
     0
291
     1
 45
0.0
1001
ACAD
1000
AcDbSavedByObjectVersion
1070
     0
  0
VISUALSTYLE
  5
2C
102
{ACAD_REACTORS
330
2A
102
}
102
{ACAD_XDICTIONARY
360
32B
102
}
330
2A
100
AcDbVisualStyle
  2
FlatWithEdges
 70
     1
 71
     2
 72
     1
 73
     1
 90
        2
 40
-0.6
 41
30.0
 62
     5
 63
     7
421
 16777215
 74
     1
 91
        4
 64
     7
 65
   257
 75
     1
175
     1
 42
1.0
 92
        0
 66
   257
 43
1.0
 76
     1
 77
     6
 78
     2
 67
     7
 79
     5
170
     0
171
     0
290
     0
174
     0
 93
       13
 44
0.0
173
     0
291
     1
 45
0.0
1001
ACAD
1000
AcDbSavedByObjectVersion
1070
     0
  0
VISUALSTYLE
  5
2D
102
{ACAD_REACTORS
330
2A
102
}
102
{ACAD_XDICTIONARY
360
32D
102
}
330
2A
100
AcDbVisualStyle
  2
Gouraud
 70
     2
 71
     2
 72
     2
 73
     1
 90
        2
 40
-0.6
 41
30.0
 62
     5
 63
     7
421
 16777215
 74
     0
 91
        4
 64
     7
 65
   257
 75
     1
175
     1
 42
1.0
 92
        0
 66
     7
 43
1.0
 76
     1
 77
     6
 78
     2
 67
     7
 79
     5
170
     0
171
     0
290
     0
174
     0
 93
       13
 44
0.0
173
     0
291
     1
 45
0.0
1001
ACAD
1000
AcDbSavedByObjectVersion
1070
     0
  0
VISUALSTYLE
  5
2E
102
{ACAD_REACTORS
330
2A
102
}
102
{ACAD_XDICTIONARY
360
32F
102
}
330
2A
100
AcDbVisualStyle
  2
GouraudWithEdges
 70
     3
 71
     2
 72
     2
 73
     1
 90
        2
 40
-0.6
 41
30.0
 62
     5
 63
     7
421
 16777215
 74
     1
 91
        4
 64
     7
 65
   257
 75
     1
175
     1
 42
1.0
 92
        0
 66
   257
 43
1.0
 76
     1
 77
     6
 78
     2
 67
     7
 79
     5
170
     0
171
     0
290
     0
174
     0
 93
       13
 44
0.0
173
     0
291
     1
 45
0.0
1001
ACAD
1000
AcDbSavedByObjectVersion
1070
     0
  0
VISUALSTYLE
  5
38
102
{ACAD_REACTORS
330
2A
102
}
102
{ACAD_XDICTIONARY
360
343
102
}
330
2A
100
AcDbVisualStyle
  2
Linepattern
 70
    14
 71
     2
 72
     2
 73
     0
 90
        0
 40
-0.6
 41
-30.0
 62
     5
 63
     7
421
 16777215
 74
     1
 91
        4
 64
     7
 65
   257
 75
     7
175
     7
 42
1.0
 92
        8
 66
     7
 43
1.0
 76
     1
 77
     6
 78
     2
 67
     7
 79
     5
170
     0
171
     0
290
     0
174
     0
 93
        1
 44
0.0
173
     0
291
     1
 45
0.0
1001
ACAD
1000
AcDbSavedByObjectVersion
1070
     0
  0
VISUALSTYLE
  5
33
102
{ACAD_REACTORS
330
2A
102
}
102
{ACAD_XDICTIONARY
360
339
102
}
330
2A
100
AcDbVisualStyle
  2
Realistic
 70
     8
 71
     2
 72
     2
 73
     0
 90
        0
 40
-0.6
 41
-30.0
 62
     5
 63
     7
421
 16777215
 74
     1
 91
        0
 64
     7
 65
   257
 75
     1
175
     1
 42
1.0
 92
        8
 66
     8
424
  7895160
 43
1.0
 76
     1
 77
     6
 78
     2
 67
     7
 79
     5
170
     0
171
     0
290
     0
174
     0
 93
       13
 44
0.0
173
     0
291
     0
 45
0.0
1001
ACAD
1000
AcDbSavedByObjectVersion
1070
     0
  0
VISUALSTYLE
  5
37
102
{ACAD_REACTORS
330
2A
102
}
102
{ACAD_XDICTIONARY
360
341
102
}
330
2A
100
AcDbVisualStyle
  2
Thicken
 70
    13
 71
     2
 72
     2
 73
     0
 90
        0
 40
-0.6
 41
-30.0
 62
     5
 63
     7
421
 16777215
 74
     1
 91
        4
 64
     7
 65
   257
 75
     1
175
     1
 42
1.0
 92
       12
 66
     7
 43
1.0
 76
     1
 77
     6
 78
     2
 67
     7
 79
     5
170
     0
171
     0
290
     0
174
     0
 93
        1
 44
0.0
173
     0
291
     1
 45
0.0
1001
ACAD
1000
AcDbSavedByObjectVersion
1070
     0
  0
DICTIONARY
  5
34B
330
3D
100
AcDbDictionary
280
     1
281
     1
  3
ACAD_XREC_ROUNDTRIP
360
34C
  0
DICTIONARY
  5
349
330
3C
100
AcDbDictionary
280
     1
281
     1
  3
ACAD_XREC_ROUNDTRIP
360
34A
  0
DICTIONARY
  5
34D
330
3E
100
AcDbDictionary
280
     1
281
     1
  3
ACAD_XREC_ROUNDTRIP
360
34E
  0
DICTIONARY
  5
331
330
2F
100
AcDbDictionary
280
     1
281
     1
  3
ACAD_XREC_ROUNDTRIP
360
332
  0
DICTIONARY
  5
335
330
31
100
AcDbDictionary
280
     1
281
     1
  3
ACAD_XREC_ROUNDTRIP
360
336
  0
DICTIONARY
  5
333
330
30
100
AcDbDictionary
280
     1
281
     1
  3
ACAD_XREC_ROUNDTRIP
360
334
  0
DICTIONARY
  5
337
330
32
100
AcDbDictionary
280
     1
281
     1
  3
ACAD_XREC_ROUNDTRIP
360
338
  0
DICTIONARY
  5
33F
330
36
100
AcDbDictionary
280
     1
281
     1
  3
ACAD_XREC_ROUNDTRIP
360
340
  0
DICTIONARY
  5
347
330
3A
100
AcDbDictionary
280
     1
281
     1
  3
ACAD_XREC_ROUNDTRIP
360
348
  0
DICTIONARY
  5
33B
330
34
100
AcDbDictionary
280
     1
281
     1
  3
ACAD_XREC_ROUNDTRIP
360
33C
  0
DICTIONARY
  5
33D
330
35
100
AcDbDictionary
280
     1
281
     1
  3
ACAD_XREC_ROUNDTRIP
360
33E
  0
DICTIONARY
  5
345
330
39
100
AcDbDictionary
280
     1
281
     1
  3
ACAD_XREC_ROUNDTRIP
360
346
  0
DICTIONARY
  5
329
330
2B
100
AcDbDictionary
280
     1
281
     1
  3
ACAD_XREC_ROUNDTRIP
360
32A
  0
DICTIONARY
  5
32B
330
2C
100
AcDbDictionary
280
     1
281
     1
  3
ACAD_XREC_ROUNDTRIP
360
32C
  0
DICTIONARY
  5
32D
330
2D
100
AcDbDictionary
280
     1
281
     1
  3
ACAD_XREC_ROUNDTRIP
360
32E
  0
DICTIONARY
  5
32F
330
2E
100
AcDbDictionary
280
     1
281
     1
  3
ACAD_XREC_ROUNDTRIP
360
330
  0
DICTIONARY
  5
343
330
38
100
AcDbDictionary
280
     1
281
     1
  3
ACAD_XREC_ROUNDTRIP
360
344
  0
DICTIONARY
  5
339
330
33
100
AcDbDictionary
280
     1
281
     1
  3
ACAD_XREC_ROUNDTRIP
360
33A
  0
DICTIONARY
  5
341
330
37
100
AcDbDictionary
280
     1
281
     1
  3
ACAD_XREC_ROUNDTRIP
360
342
  0
XRECORD
  5
34C
102
{ACAD_REACTORS
330
34B
102
}
330
34B
100
AcDbXrecord
280
     1
102
MATERIAL
148
0.0
149
0.0
149
0.0
 93
        0
 94
      127
282
     0
 72
     1
 77
     1
171
     1
175
     1
179
     1
273
     0
  0
XRECORD
  5
34A
102
{ACAD_REACTORS
330
349
102
}
330
349
100
AcDbXrecord
280
     1
102
MATERIAL
148
0.0
149
0.0
149
0.0
 93
        0
 94
      127
282
     0
 72
     1
 77
     1
171
     1
175
     1
179
     1
273
     0
  0
XRECORD
  5
34E
102
{ACAD_REACTORS
330
34D
102
}
330
34D
100
AcDbXrecord
280
     1
102
MATERIAL
148
0.0
149
0.0
149
0.0
 93
        0
 94
      127
282
     0
 72
     1
 77
     1
171
     1
175
     1
179
     1
273
     0
  0
XRECORD
  5
332
102
{ACAD_REACTORS
330
331
102
}
330
331
100
AcDbXrecord
280
     1
102
RTVSPropertyOp0
 70
     1
102
RTVSPropertyOp1
 70
     1
102
RTVSPropertyOp2
 70
     1
102
RTVSPropertyOp3
 70
     1
102
RTVSPropertyOp4
 70
     1
102
RTVSPropertyOp5
 70
     1
102
RTVSPropertyOp6
 70
     1
102
RTVSPropertyOp7
 70
     1
102
RTVSPropertyOp8
 70
     1
102
RTVSPropertyOp9
 70
     1
102
RTVSPropertyOp10
 70
     1
102
RTVSPropertyOp11
 70
     1
102
RTVSPropertyOp12
 70
     1
102
RTVSPropertyOp13
 70
     1
102
RTVSPropertyOp14
 70
     1
102
RTVSPropertyOp15
 70
     1
102
RTVSPropertyOp16
 70
     1
102
RTVSPropertyOp17
 70
     1
102
RTVSPropertyOp18
 70
     1
102
RTVSPropertyOp19
 70
     1
102
RTVSPropertyOp20
 70
     1
102
RTVSPropertyOp21
 70
     1
102
RTVSPropertyOp22
 70
     1
102
RTVSPropertyOp23
 70
     1
102
RTVSPropertyOp24
 70
     1
102
RTVSPropertyOp25
 70
     1
102
RTVSPropertyOp26
 70
     1
102
RTVSPropertyOp27
 70
     1
102
RTVSPropertyOp28
 70
     1
102
RTVSPropertyOp29
 70
     1
102
RTVSPropertyOp30
 70
     1
102
RTVSPropertyOp31
 70
     1
102
RTVSPropertyOp32
 70
     1
  0
XRECORD
  5
336
102
{ACAD_REACTORS
330
335
102
}
330
335
100
AcDbXrecord
280
     1
102
RTVSPropertyOp0
 70
     1
102
RTVSPropertyOp1
 70
     1
102
RTVSPropertyOp2
 70
     1
102
RTVSPropertyOp3
 70
     1
102
RTVSPropertyOp4
 70
     1
102
RTVSPropertyOp5
 70
     1
102
RTVSPropertyOp6
 70
     1
102
RTVSPropertyOp7
 70
     1
102
RTVSPropertyOp8
 70
     1
102
RTVSPropertyOp9
 70
     1
102
RTVSPropertyOp10
 70
     1
102
RTVSPropertyOp11
 70
     1
102
RTVSPropertyOp12
 70
     1
102
RTVSPropertyOp13
 70
     1
102
RTVSPropertyOp14
 70
     1
102
RTVSPropertyOp15
 70
     1
102
RTVSPropertyOp16
 70
     1
102
RTVSPropertyOp17
 70
     1
102
RTVSPropertyOp18
 70
     1
102
RTVSPropertyOp19
 70
     1
102
RTVSPropertyOp20
 70
     1
102
RTVSPropertyOp21
 70
     1
102
RTVSPropertyOp22
 70
     1
102
RTVSPropertyOp23
 70
     1
102
RTVSPropertyOp24
 70
     1
102
RTVSPropertyOp25
 70
     1
102
RTVSPropertyOp26
 70
     1
102
RTVSPropertyOp27
 70
     1
102
RTVSPropertyOp28
 70
     1
102
RTVSPropertyOp29
 70
     1
102
RTVSPropertyOp30
 70
     1
102
RTVSPropertyOp31
 70
     1
102
RTVSPropertyOp32
 70
     1
  0
XRECORD
  5
334
102
{ACAD_REACTORS
330
333
102
}
330
333
100
AcDbXrecord
280
     1
102
RTVSPropertyOp0
 70
     1
102
RTVSPropertyOp1
 70
     1
102
RTVSPropertyOp2
 70
     1
102
RTVSPropertyOp3
 70
     1
102
RTVSPropertyOp4
 70
     1
102
RTVSPropertyOp5
 70
     1
102
RTVSPropertyOp6
 70
     1
102
RTVSPropertyOp7
 70
     1
102
RTVSPropertyOp8
 70
     1
102
RTVSPropertyOp9
 70
     1
102
RTVSPropertyOp10
 70
     1
102
RTVSPropertyOp11
 70
     1
102
RTVSPropertyOp12
 70
     1
102
RTVSPropertyOp13
 70
     1
102
RTVSPropertyOp14
 70
     1
102
RTVSPropertyOp15
 70
     1
102
RTVSPropertyOp16
 70
     1
102
RTVSPropertyOp17
 70
     1
102
RTVSPropertyOp18
 70
     1
102
RTVSPropertyOp19
 70
     1
102
RTVSPropertyOp20
 70
     1
102
RTVSPropertyOp21
 70
     1
102
RTVSPropertyOp22
 70
     1
102
RTVSPropertyOp23
 70
     1
102
RTVSPropertyOp24
 70
     1
102
RTVSPropertyOp25
 70
     1
102
RTVSPropertyOp26
 70
     1
102
RTVSPropertyOp27
 70
     1
102
RTVSPropertyOp28
 70
     1
102
RTVSPropertyOp29
 70
     1
102
RTVSPropertyOp30
 70
     1
102
RTVSPropertyOp31
 70
     1
102
RTVSPropertyOp32
 70
     1
  0
XRECORD
  5
338
102
{ACAD_REACTORS
330
337
102
}
330
337
100
AcDbXrecord
280
     1
102
RTVSPropertyOp0
 70
     1
102
RTVSPropertyOp1
 70
     1
102
RTVSPropertyOp2
 70
     1
102
RTVSPropertyOp3
 70
     1
102
RTVSPropertyOp4
 70
     1
102
RTVSPropertyOp5
 70
     1
102
RTVSPropertyOp6
 70
     1
102
RTVSPropertyOp7
 70
     1
102
RTVSPropertyOp8
 70
     1
102
RTVSPropertyOp9
 70
     1
102
RTVSPropertyOp10
 70
     1
102
RTVSPropertyOp11
 70
     1
102
RTVSPropertyOp12
 70
     1
102
RTVSPropertyOp13
 70
     1
102
RTVSPropertyOp14
 70
     1
102
RTVSPropertyOp15
 70
     1
102
RTVSPropertyOp16
 70
     1
102
RTVSPropertyOp17
 70
     1
102
RTVSPropertyOp18
 70
     1
102
RTVSPropertyOp19
 70
     1
102
RTVSPropertyOp20
 70
     1
102
RTVSPropertyOp21
 70
     1
102
RTVSPropertyOp22
 70
     1
102
RTVSPropertyOp23
 70
     1
102
RTVSPropertyOp24
 70
     1
102
RTVSPropertyOp25
 70
     1
102
RTVSPropertyOp26
 70
     1
102
RTVSPropertyOp27
 70
     1
102
RTVSPropertyOp28
 70
     1
102
RTVSPropertyOp29
 70
     1
102
RTVSPropertyOp30
 70
     1
102
RTVSPropertyOp31
 70
     1
102
RTVSPropertyOp32
 70
     1
  0
XRECORD
  5
340
102
{ACAD_REACTORS
330
33F
102
}
330
33F
100
AcDbXrecord
280
     1
102
RTVSPropertyOp0
 70
     1
102
RTVSPropertyOp1
 70
     1
102
RTVSPropertyOp2
 70
     1
102
RTVSPropertyOp3
 70
     1
102
RTVSPropertyOp4
 70
     1
102
RTVSPropertyOp5
 70
     1
102
RTVSPropertyOp6
 70
     1
102
RTVSPropertyOp7
 70
     1
102
RTVSPropertyOp8
 70
     1
102
RTVSPropertyOp9
 70
     1
102
RTVSPropertyOp10
 70
     1
102
RTVSPropertyOp11
 70
     1
102
RTVSPropertyOp12
 70
     1
102
RTVSPropertyOp13
 70
     1
102
RTVSPropertyOp14
 70
     1
102
RTVSPropertyOp15
 70
     1
102
RTVSPropertyOp16
 70
     1
102
RTVSPropertyOp17
 70
     1
102
RTVSPropertyOp18
 70
     1
102
RTVSPropertyOp19
 70
     1
102
RTVSPropertyOp20
 70
     1
102
RTVSPropertyOp21
 70
     1
102
RTVSPropertyOp22
 70
     1
102
RTVSPropertyOp23
 70
     1
102
RTVSPropertyOp24
 70
     1
102
RTVSPropertyOp25
 70
     1
102
RTVSPropertyOp26
 70
     1
102
RTVSPropertyOp27
 70
     1
102
RTVSPropertyOp28
 70
     1
102
RTVSPropertyOp29
 70
     1
102
RTVSPropertyOp30
 70
     1
102
RTVSPropertyOp31
 70
     1
102
RTVSPropertyOp32
 70
     1
  0
XRECORD
  5
348
102
{ACAD_REACTORS
330
347
102
}
330
347
100
AcDbXrecord
280
     1
102
RTVSPropertyOp0
 70
     1
102
RTVSPropertyOp1
 70
     1
102
RTVSPropertyOp2
 70
     1
102
RTVSPropertyOp3
 70
     1
102
RTVSPropertyOp4
 70
     1
102
RTVSPropertyOp5
 70
     1
102
RTVSPropertyOp6
 70
     1
102
RTVSPropertyOp7
 70
     1
102
RTVSPropertyOp8
 70
     1
102
RTVSPropertyOp9
 70
     1
102
RTVSPropertyOp10
 70
     1
102
RTVSPropertyOp11
 70
     1
102
RTVSPropertyOp12
 70
     1
102
RTVSPropertyOp13
 70
     1
102
RTVSPropertyOp14
 70
     1
102
RTVSPropertyOp15
 70
     1
102
RTVSPropertyOp16
 70
     1
102
RTVSPropertyOp17
 70
     1
102
RTVSPropertyOp18
 70
     1
102
RTVSPropertyOp19
 70
     1
102
RTVSPropertyOp20
 70
     1
102
RTVSPropertyOp21
 70
     1
102
RTVSPropertyOp22
 70
     1
102
RTVSPropertyOp23
 70
     1
102
RTVSPropertyOp24
 70
     1
102
RTVSPropertyOp25
 70
     1
102
RTVSPropertyOp26
 70
     1
102
RTVSPropertyOp27
 70
     1
102
RTVSPropertyOp28
 70
     1
102
RTVSPropertyOp29
 70
     1
102
RTVSPropertyOp30
 70
     1
102
RTVSPropertyOp31
 70
     1
102
RTVSPropertyOp32
 70
     1
  0
XRECORD
  5
33C
102
{ACAD_REACTORS
330
33B
102
}
330
33B
100
AcDbXrecord
280
     1
102
RTVSPropertyOp0
 70
     1
102
RTVSPropertyOp1
 70
     1
102
RTVSPropertyOp2
 70
     1
102
RTVSPropertyOp3
 70
     1
102
RTVSPropertyOp4
 70
     1
102
RTVSPropertyOp5
 70
     1
102
RTVSPropertyOp6
 70
     1
102
RTVSPropertyOp7
 70
     1
102
RTVSPropertyOp8
 70
     1
102
RTVSPropertyOp9
 70
     1
102
RTVSPropertyOp10
 70
     1
102
RTVSPropertyOp11
 70
     1
102
RTVSPropertyOp12
 70
     1
102
RTVSPropertyOp13
 70
     1
102
RTVSPropertyOp14
 70
     1
102
RTVSPropertyOp15
 70
     1
102
RTVSPropertyOp16
 70
     1
102
RTVSPropertyOp17
 70
     1
102
RTVSPropertyOp18
 70
     1
102
RTVSPropertyOp19
 70
     1
102
RTVSPropertyOp20
 70
     1
102
RTVSPropertyOp21
 70
     1
102
RTVSPropertyOp22
 70
     1
102
RTVSPropertyOp23
 70
     1
102
RTVSPropertyOp24
 70
     1
102
RTVSPropertyOp25
 70
     1
102
RTVSPropertyOp26
 70
     1
102
RTVSPropertyOp27
 70
     1
102
RTVSPropertyOp28
 70
     1
102
RTVSPropertyOp29
 70
     1
102
RTVSPropertyOp30
 70
     1
102
RTVSPropertyOp31
 70
     1
102
RTVSPropertyOp32
 70
     1
  0
XRECORD
  5
33E
102
{ACAD_REACTORS
330
33D
102
}
330
33D
100
AcDbXrecord
280
     1
102
RTVSPropertyOp0
 70
     1
102
RTVSPropertyOp1
 70
     1
102
RTVSPropertyOp2
 70
     1
102
RTVSPropertyOp3
 70
     1
102
RTVSPropertyOp4
 70
     1
102
RTVSPropertyOp5
 70
     1
102
RTVSPropertyOp6
 70
     1
102
RTVSPropertyOp7
 70
     1
102
RTVSPropertyOp8
 70
     1
102
RTVSPropertyOp9
 70
     1
102
RTVSPropertyOp10
 70
     1
102
RTVSPropertyOp11
 70
     1
102
RTVSPropertyOp12
 70
     1
102
RTVSPropertyOp13
 70
     1
102
RTVSPropertyOp14
 70
     1
102
RTVSPropertyOp15
 70
     1
102
RTVSPropertyOp16
 70
     1
102
RTVSPropertyOp17
 70
     1
102
RTVSPropertyOp18
 70
     1
102
RTVSPropertyOp19
 70
     1
102
RTVSPropertyOp20
 70
     1
102
RTVSPropertyOp21
 70
     1
102
RTVSPropertyOp22
 70
     1
102
RTVSPropertyOp23
 70
     1
102
RTVSPropertyOp24
 70
     1
102
RTVSPropertyOp25
 70
     1
102
RTVSPropertyOp26
 70
     1
102
RTVSPropertyOp27
 70
     1
102
RTVSPropertyOp28
 70
     1
102
RTVSPropertyOp29
 70
     1
102
RTVSPropertyOp30
 70
     1
102
RTVSPropertyOp31
 70
     1
102
RTVSPropertyOp32
 70
     1
  0
XRECORD
  5
346
102
{ACAD_REACTORS
330
345
102
}
330
345
100
AcDbXrecord
280
     1
102
RTVSPropertyOp0
 70
     1
102
RTVSPropertyOp1
 70
     1
102
RTVSPropertyOp2
 70
     1
102
RTVSPropertyOp3
 70
     1
102
RTVSPropertyOp4
 70
     1
102
RTVSPropertyOp5
 70
     1
102
RTVSPropertyOp6
 70
     1
102
RTVSPropertyOp7
 70
     1
102
RTVSPropertyOp8
 70
     1
102
RTVSPropertyOp9
 70
     1
102
RTVSPropertyOp10
 70
     1
102
RTVSPropertyOp11
 70
     1
102
RTVSPropertyOp12
 70
     1
102
RTVSPropertyOp13
 70
     1
102
RTVSPropertyOp14
 70
     1
102
RTVSPropertyOp15
 70
     1
102
RTVSPropertyOp16
 70
     1
102
RTVSPropertyOp17
 70
     1
102
RTVSPropertyOp18
 70
     1
102
RTVSPropertyOp19
 70
     1
102
RTVSPropertyOp20
 70
     1
102
RTVSPropertyOp21
 70
     1
102
RTVSPropertyOp22
 70
     1
102
RTVSPropertyOp23
 70
     1
102
RTVSPropertyOp24
 70
     1
102
RTVSPropertyOp25
 70
     1
102
RTVSPropertyOp26
 70
     1
102
RTVSPropertyOp27
 70
     1
102
RTVSPropertyOp28
 70
     1
102
RTVSPropertyOp29
 70
     1
102
RTVSPropertyOp30
 70
     1
102
RTVSPropertyOp31
 70
     1
102
RTVSPropertyOp32
 70
     1
  0
XRECORD
  5
32A
102
{ACAD_REACTORS
330
329
102
}
330
329
100
AcDbXrecord
280
     1
102
RTVSPropertyOp0
 70
     1
102
RTVSPropertyOp1
 70
     1
102
RTVSPropertyOp2
 70
     1
102
RTVSPropertyOp3
 70
     1
102
RTVSPropertyOp4
 70
     1
102
RTVSPropertyOp5
 70
     1
102
RTVSPropertyOp6
 70
     1
102
RTVSPropertyOp7
 70
     1
102
RTVSPropertyOp8
 70
     1
102
RTVSPropertyOp9
 70
     1
102
RTVSPropertyOp10
 70
     1
102
RTVSPropertyOp11
 70
     1
102
RTVSPropertyOp12
 70
     1
102
RTVSPropertyOp13
 70
     1
102
RTVSPropertyOp14
 70
     1
102
RTVSPropertyOp15
 70
     1
102
RTVSPropertyOp16
 70
     1
102
RTVSPropertyOp17
 70
     1
102
RTVSPropertyOp18
 70
     1
102
RTVSPropertyOp19
 70
     1
102
RTVSPropertyOp20
 70
     1
102
RTVSPropertyOp21
 70
     1
102
RTVSPropertyOp22
 70
     1
102
RTVSPropertyOp23
 70
     1
102
RTVSPropertyOp24
 70
     1
102
RTVSPropertyOp25
 70
     1
102
RTVSPropertyOp26
 70
     1
102
RTVSPropertyOp27
 70
     1
102
RTVSPropertyOp28
 70
     1
102
RTVSPropertyOp29
 70
     1
102
RTVSPropertyOp30
 70
     1
102
RTVSPropertyOp31
 70
     1
102
RTVSPropertyOp32
 70
     1
  0
XRECORD
  5
32C
102
{ACAD_REACTORS
330
32B
102
}
330
32B
100
AcDbXrecord
280
     1
102
RTVSPropertyOp0
 70
     1
102
RTVSPropertyOp1
 70
     1
102
RTVSPropertyOp2
 70
     1
102
RTVSPropertyOp3
 70
     1
102
RTVSPropertyOp4
 70
     1
102
RTVSPropertyOp5
 70
     1
102
RTVSPropertyOp6
 70
     1
102
RTVSPropertyOp7
 70
     1
102
RTVSPropertyOp8
 70
     1
102
RTVSPropertyOp9
 70
     1
102
RTVSPropertyOp10
 70
     1
102
RTVSPropertyOp11
 70
     1
102
RTVSPropertyOp12
 70
     1
102
RTVSPropertyOp13
 70
     1
102
RTVSPropertyOp14
 70
     1
102
RTVSPropertyOp15
 70
     1
102
RTVSPropertyOp16
 70
     1
102
RTVSPropertyOp17
 70
     1
102
RTVSPropertyOp18
 70
     1
102
RTVSPropertyOp19
 70
     1
102
RTVSPropertyOp20
 70
     1
102
RTVSPropertyOp21
 70
     1
102
RTVSPropertyOp22
 70
     1
102
RTVSPropertyOp23
 70
     1
102
RTVSPropertyOp24
 70
     1
102
RTVSPropertyOp25
 70
     1
102
RTVSPropertyOp26
 70
     1
102
RTVSPropertyOp27
 70
     1
102
RTVSPropertyOp28
 70
     1
102
RTVSPropertyOp29
 70
     1
102
RTVSPropertyOp30
 70
     1
102
RTVSPropertyOp31
 70
     1
102
RTVSPropertyOp32
 70
     1
  0
XRECORD
  5
32E
102
{ACAD_REACTORS
330
32D
102
}
330
32D
100
AcDbXrecord
280
     1
102
RTVSPropertyOp0
 70
     1
102
RTVSPropertyOp1
 70
     1
102
RTVSPropertyOp2
 70
     1
102
RTVSPropertyOp3
 70
     1
102
RTVSPropertyOp4
 70
     1
102
RTVSPropertyOp5
 70
     1
102
RTVSPropertyOp6
 70
     1
102
RTVSPropertyOp7
 70
     1
102
RTVSPropertyOp8
 70
     1
102
RTVSPropertyOp9
 70
     1
102
RTVSPropertyOp10
 70
     1
102
RTVSPropertyOp11
 70
     1
102
RTVSPropertyOp12
 70
     1
102
RTVSPropertyOp13
 70
     1
102
RTVSPropertyOp14
 70
     1
102
RTVSPropertyOp15
 70
     1
102
RTVSPropertyOp16
 70
     1
102
RTVSPropertyOp17
 70
     1
102
RTVSPropertyOp18
 70
     1
102
RTVSPropertyOp19
 70
     1
102
RTVSPropertyOp20
 70
     1
102
RTVSPropertyOp21
 70
     1
102
RTVSPropertyOp22
 70
     1
102
RTVSPropertyOp23
 70
     1
102
RTVSPropertyOp24
 70
     1
102
RTVSPropertyOp25
 70
     1
102
RTVSPropertyOp26
 70
     1
102
RTVSPropertyOp27
 70
     1
102
RTVSPropertyOp28
 70
     1
102
RTVSPropertyOp29
 70
     1
102
RTVSPropertyOp30
 70
     1
102
RTVSPropertyOp31
 70
     1
102
RTVSPropertyOp32
 70
     1
  0
XRECORD
  5
330
102
{ACAD_REACTORS
330
32F
102
}
330
32F
100
AcDbXrecord
280
     1
102
RTVSPropertyOp0
 70
     1
102
RTVSPropertyOp1
 70
     1
102
RTVSPropertyOp2
 70
     1
102
RTVSPropertyOp3
 70
     1
102
RTVSPropertyOp4
 70
     1
102
RTVSPropertyOp5
 70
     1
102
RTVSPropertyOp6
 70
     1
102
RTVSPropertyOp7
 70
     1
102
RTVSPropertyOp8
 70
     1
102
RTVSPropertyOp9
 70
     1
102
RTVSPropertyOp10
 70
     1
102
RTVSPropertyOp11
 70
     1
102
RTVSPropertyOp12
 70
     1
102
RTVSPropertyOp13
 70
     1
102
RTVSPropertyOp14
 70
     1
102
RTVSPropertyOp15
 70
     1
102
RTVSPropertyOp16
 70
     1
102
RTVSPropertyOp17
 70
     1
102
RTVSPropertyOp18
 70
     1
102
RTVSPropertyOp19
 70
     1
102
RTVSPropertyOp20
 70
     1
102
RTVSPropertyOp21
 70
     1
102
RTVSPropertyOp22
 70
     1
102
RTVSPropertyOp23
 70
     1
102
RTVSPropertyOp24
 70
     1
102
RTVSPropertyOp25
 70
     1
102
RTVSPropertyOp26
 70
     1
102
RTVSPropertyOp27
 70
     1
102
RTVSPropertyOp28
 70
     1
102
RTVSPropertyOp29
 70
     1
102
RTVSPropertyOp30
 70
     1
102
RTVSPropertyOp31
 70
     1
102
RTVSPropertyOp32
 70
     1
  0
XRECORD
  5
344
102
{ACAD_REACTORS
330
343
102
}
330
343
100
AcDbXrecord
280
     1
102
RTVSPropertyOp0
 70
     1
102
RTVSPropertyOp1
 70
     1
102
RTVSPropertyOp2
 70
     1
102
RTVSPropertyOp3
 70
     1
102
RTVSPropertyOp4
 70
     1
102
RTVSPropertyOp5
 70
     1
102
RTVSPropertyOp6
 70
     1
102
RTVSPropertyOp7
 70
     1
102
RTVSPropertyOp8
 70
     1
102
RTVSPropertyOp9
 70
     1
102
RTVSPropertyOp10
 70
     1
102
RTVSPropertyOp11
 70
     1
102
RTVSPropertyOp12
 70
     1
102
RTVSPropertyOp13
 70
     1
102
RTVSPropertyOp14
 70
     1
102
RTVSPropertyOp15
 70
     1
102
RTVSPropertyOp16
 70
     1
102
RTVSPropertyOp17
 70
     1
102
RTVSPropertyOp18
 70
     1
102
RTVSPropertyOp19
 70
     1
102
RTVSPropertyOp20
 70
     1
102
RTVSPropertyOp21
 70
     1
102
RTVSPropertyOp22
 70
     1
102
RTVSPropertyOp23
 70
     1
102
RTVSPropertyOp24
 70
     1
102
RTVSPropertyOp25
 70
     1
102
RTVSPropertyOp26
 70
     1
102
RTVSPropertyOp27
 70
     1
102
RTVSPropertyOp28
 70
     1
102
RTVSPropertyOp29
 70
     1
102
RTVSPropertyOp30
 70
     1
102
RTVSPropertyOp31
 70
     1
102
RTVSPropertyOp32
 70
     1
  0
XRECORD
  5
33A
102
{ACAD_REACTORS
330
339
102
}
330
339
100
AcDbXrecord
280
     1
102
RTVSPropertyOp0
 70
     1
102
RTVSPropertyOp1
 70
     1
102
RTVSPropertyOp2
 70
     1
102
RTVSPropertyOp3
 70
     1
102
RTVSPropertyOp4
 70
     1
102
RTVSPropertyOp5
 70
     1
102
RTVSPropertyOp6
 70
     1
102
RTVSPropertyOp7
 70
     1
102
RTVSPropertyOp8
 70
     1
102
RTVSPropertyOp9
 70
     1
102
RTVSPropertyOp10
 70
     1
102
RTVSPropertyOp11
 70
     1
102
RTVSPropertyOp12
 70
     1
102
RTVSPropertyOp13
 70
     1
102
RTVSPropertyOp14
 70
     1
102
RTVSPropertyOp15
 70
     1
102
RTVSPropertyOp16
 70
     1
102
RTVSPropertyOp17
 70
     1
102
RTVSPropertyOp18
 70
     1
102
RTVSPropertyOp19
 70
     1
102
RTVSPropertyOp20
 70
     1
102
RTVSPropertyOp21
 70
     1
102
RTVSPropertyOp22
 70
     1
102
RTVSPropertyOp23
 70
     1
102
RTVSPropertyOp24
 70
     1
102
RTVSPropertyOp25
 70
     1
102
RTVSPropertyOp26
 70
     1
102
RTVSPropertyOp27
 70
     1
102
RTVSPropertyOp28
 70
     1
102
RTVSPropertyOp29
 70
     1
102
RTVSPropertyOp30
 70
     1
102
RTVSPropertyOp31
 70
     1
102
RTVSPropertyOp32
 70
     1
  0
XRECORD
  5
342
102
{ACAD_REACTORS
330
341
102
}
330
341
100
AcDbXrecord
280
     1
102
RTVSPropertyOp0
 70
     1
102
RTVSPropertyOp1
 70
     1
102
RTVSPropertyOp2
 70
     1
102
RTVSPropertyOp3
 70
     1
102
RTVSPropertyOp4
 70
     1
102
RTVSPropertyOp5
 70
     1
102
RTVSPropertyOp6
 70
     1
102
RTVSPropertyOp7
 70
     1
102
RTVSPropertyOp8
 70
     1
102
RTVSPropertyOp9
 70
     1
102
RTVSPropertyOp10
 70
     1
102
RTVSPropertyOp11
 70
     1
102
RTVSPropertyOp12
 70
     1
102
RTVSPropertyOp13
 70
     1
102
RTVSPropertyOp14
 70
     1
102
RTVSPropertyOp15
 70
     1
102
RTVSPropertyOp16
 70
     1
102
RTVSPropertyOp17
 70
     1
102
RTVSPropertyOp18
 70
     1
102
RTVSPropertyOp19
 70
     1
102
RTVSPropertyOp20
 70
     1
102
RTVSPropertyOp21
 70
     1
102
RTVSPropertyOp22
 70
     1
102
RTVSPropertyOp23
 70
     1
102
RTVSPropertyOp24
 70
     1
102
RTVSPropertyOp25
 70
     1
102
RTVSPropertyOp26
 70
     1
102
RTVSPropertyOp27
 70
     1
102
RTVSPropertyOp28
 70
     1
102
RTVSPropertyOp29
 70
     1
102
RTVSPropertyOp30
 70
     1
102
RTVSPropertyOp31
 70
     1
102
RTVSPropertyOp32
 70
     1
  0
ENDSEC
  0
EOF
